Поиск

(Funk, Soul, Disco) [CD] Anita Ward - Ring My Bell - 2003, FLAC (image+.cue), lossless

(Funk, Soul, Disco) [CD] Anita Ward - Ring My Bell - 2003, FLAC (image+.cue), lossless
Треклист:
.
.Anita Ward
Ring My Bell
(CD, Compilation, American singer, born December 20, 1956,
Memphis, Tennessee, United States ) Жанр: Funk, Soul, Disco
Носитель: CD
Страна-производитель диска (релиза): UK
Год издания: 2003
Издатель (лейбл): Hallmark Music & Entertainment
Номер по каталогу: 701062
Страна исполнителя (группы): USA.
Аудиокодек: FLAC (*.flac)
Тип рипа: image+.cue
Битрейт аудио: lossless
Продолжительность: 00:51:24
Источник (релизер): stas64
Наличие сканов в содержимом раздачи: да 600dpi.
.
.
.
.Треклист:
01. Ring My Bell /3:56
02. Who Want's To Be In Love /3:42
03. All The Money In The World /3:52
04. Touch Love /4:24
05. When A Woman Loves /3:53
06. Have I Got A Girl For You /3:26
07. Someone Like You /4:46
08. Lady Bodybuilder /4:05
09. I'll Be The Girl /4:20
10. I'll Be Loving You Always /3:48
11. Be My Baby /3:45
12. Wherever There's Love /3:29
13. Ring My Bell (Latin Mix) /3:51
 
Booklet



 
Лог создания рипа
Exact Audio Copy V1.3 from 2. September 2016
Отчёт EAC об извлечении, выполненном 10. октября 2017, 12:50
Anita Ward / Ring My Bell
Дисковод: PLEXTOR DVDR PX-712A Adapter: 7 ID: 3
Режим чтения : Достоверность
Использование точного потока : Да
Отключение кэша аудио : Да
Использование указателей C2 : Нет
Коррекция смещения при чтении : 30
Способность читать области Lead-in и Lead-out : Нет
Заполнение пропущенных сэмплов тишиной : Да
Удаление блоков с тишиной в начале и конце : Нет
При вычислениях CRC использовались нулевые сэмплы : Да
Интерфейс : Установленный внешний ASPI-интерфейс
Выходной формат : Пользовательский кодировщик
Выбранный битрейт : 128 kBit/s
Качество : Высокий
Добавление ID3-тега : Нет
Утилита сжатия : C:\Program Files\Exact Audio Copy\FLAC\FLAC.EXE
Дополнительные параметры : -6 -V -T "ARTIST=%artist%" -T "TITLE=%title%" -T "ALBUM=%albumtitle%" -T "DATE=%year%" -T "TRACKNUMBER=%tracknr%" -T "GENRE=%genre%" -T "COMMENT=%comment%" -T "BAND=%albuminterpret%" -T "ALBUMARTIST=%albuminterpret%" -T "COMPOSER=%composer%" %haslyrics%--tag-from-file=LYRICS="%lyricsfile%"%haslyrics% -T "DISCNUMBER=%cdnumber%" -T "TOTALDISCS=%totalcds%" -T "TOTALTRACKS=%numtracks%" %hascover%--picture="%coverfile%"%hascover% %source% -o %dest%
TOC извлечённого CD
Трек | Старт | Длительность | Начальный сектор | Конечный сектор
---------------------------------------------------------------------
1 | 0:00.00 | 3:56.56 | 0 | 17755
2 | 3:56.56 | 3:42.27 | 17756 | 34432
3 | 7:39.08 | 3:52.74 | 34433 | 51906
4 | 11:32.07 | 4:24.36 | 51907 | 71742
5 | 15:56.43 | 3:53.21 | 71743 | 89238
6 | 19:49.64 | 3:26.54 | 89239 | 104742
7 | 23:16.43 | 4:46.70 | 104743 | 126262
8 | 28:03.38 | 4:05.38 | 126263 | 144675
9 | 32:09.01 | 4:20.04 | 144676 | 164179
10 | 36:29.05 | 3:48.51 | 164180 | 181330
11 | 40:17.56 | 3:45.47 | 181331 | 198252
12 | 44:03.28 | 3:29.30 | 198253 | 213957
13 | 47:32.58 | 3:51.19 | 213958 | 231301
Характеристики диапазона извлечения и сообщения об ошибках
Выбранный диапазон
Имя файла I:\MOI_RAZDACI\Anita Ward 2003\Anita.Ward_Ring.My.Bell_2003\Anita Ward - Ring My Bell.wav
Пиковый уровень 93.9 %
Скорость извлечения 10.0 X
Качество диапазона 100.0 %
CRC теста B4AAB3F2
CRC копии B4AAB3F2
Копирование... OK
Ошибок не произошло
AccurateRip: сводка
Трек 1 точность не определена (достоверность 2) [105B6E81], AccurateRip вернул [78920161] (AR v2)
Трек 2 точность не определена (достоверность 2) [F4A838D8], AccurateRip вернул [39FD826D] (AR v2)
Трек 3 точность не определена (достоверность 2) [E7CFA6BA], AccurateRip вернул [FDB30489] (AR v2)
Трек 4 точность не определена (достоверность 2) [26E70410], AccurateRip вернул [C015F03D] (AR v2)
Трек 5 точность не определена (достоверность 2) [A65F2FC3], AccurateRip вернул [B193C92A] (AR v2)
Трек 6 точность не определена (достоверность 2) [6180674F], AccurateRip вернул [A64892A6] (AR v2)
Трек 7 точность не определена (достоверность 2) [4AFAB965], AccurateRip вернул [6EC96F54] (AR v2)
Трек 8 точность не определена (достоверность 2) [91235CB5], AccurateRip вернул [21BDB609] (AR v2)
Трек 9 точность не определена (достоверность 2) [AEA1338C], AccurateRip вернул [A69674F8] (AR v2)
Трек 10 точность не определена (достоверность 2) [6D7B47FD], AccurateRip вернул [9F3B7FDD] (AR v2)
Трек 11 точность не определена (достоверность 2) [B3BFB1F5], AccurateRip вернул [01510065] (AR v2)
Трек 12 точность не определена (достоверность 2) [E2537795], AccurateRip вернул [5C597553] (AR v2)
Трек 13 точность не определена (достоверность 2) [22E311BF], AccurateRip вернул [589B424E] (AR v2)
Ни один трек не прошёл проверки на точность
В вашей базе может быть иной вариант штамповки диска
Конец отчёта
---- CUETools DB Plugin V2.1.6
[CTDB TOCID: 6vFztRtEMhsYrGi9OmlrgmCNiDg-] found
Submit result: 6vFztRtEMhsYrGi9OmlrgmCNiDg- has been confirmed
Track | CTDB Status
1 | (1/1) Accurately ripped
2 | (1/1) Accurately ripped
3 | (1/1) Accurately ripped
4 | (1/1) Accurately ripped
5 | (1/1) Accurately ripped
6 | (1/1) Accurately ripped
7 | (1/1) Accurately ripped
8 | (1/1) Accurately ripped
9 | (1/1) Accurately ripped
10 | (1/1) Accurately ripped
11 | (1/1) Accurately ripped
12 | (1/1) Accurately ripped
13 | (1/1) Accurately ripped
==== Контрольная сумма отчёта 69234F6190805ACF56D7292A40D3E7DDB81B0CC3B99ADAD34F2CD89D0A559005 ====
 
Содержание индексной карты (.CUE)
REM GENRE Disco
REM DATE 2003
REM DISCID C70C0C0D
REM COMMENT "ExactAudioCopy v1.3"
PERFORMER "Anita Ward"
TITLE "Ring My Bell"
REM COMPOSER ""
FILE "Anita Ward - Ring My Bell.flac" WAVE
TRACK 01 AUDIO
TITLE "Ring My Bell"
PERFORMER "Anita Ward"
REM COMPOSER ""
INDEX 01 00:00:00
TRACK 02 AUDIO
TITLE "Who Wants to Be in Love"
PERFORMER "Anita Ward"
REM COMPOSER ""
INDEX 01 03:56:56
TRACK 03 AUDIO
TITLE "All the Money in the World"
PERFORMER "Anita Ward"
REM COMPOSER ""
INDEX 01 07:39:08
TRACK 04 AUDIO
TITLE "Touch Love"
PERFORMER "Anita Ward"
REM COMPOSER ""
INDEX 01 11:32:07
TRACK 05 AUDIO
TITLE "When a Woman Loves"
PERFORMER "Anita Ward"
REM COMPOSER ""
INDEX 00 15:54:48
INDEX 01 15:56:43
TRACK 06 AUDIO
TITLE "Have I Got a Girl for You"
PERFORMER "Anita Ward"
REM COMPOSER ""
INDEX 01 19:49:64
TRACK 07 AUDIO
TITLE "Someone Like You"
PERFORMER "Anita Ward"
REM COMPOSER ""
INDEX 00 23:14:48
INDEX 01 23:16:43
TRACK 08 AUDIO
TITLE "Lady Bodybuilder"
PERFORMER "Anita Ward"
REM COMPOSER ""
INDEX 01 28:03:38
TRACK 09 AUDIO
TITLE "I’ll Be the Girl"
PERFORMER "Anita Ward"
REM COMPOSER ""
INDEX 01 32:09:01
TRACK 10 AUDIO
TITLE "I’ll Be Loving You Always"
PERFORMER "Anita Ward"
REM COMPOSER ""
INDEX 01 36:29:05
TRACK 11 AUDIO
TITLE "Be My Baby"
PERFORMER "Anita Ward"
REM COMPOSER ""
INDEX 01 40:17:56
TRACK 12 AUDIO
TITLE "Wherever There’s Love"
PERFORMER "Anita Ward"
REM COMPOSER ""
INDEX 01 44:03:28
TRACK 13 AUDIO
TITLE "Ring My Bell (Latin mix)"
PERFORMER "Anita Ward"
REM COMPOSER ""
INDEX 00 47:30:63
INDEX 01 47:32:58
 
Лог проверки качества
-----------------------
DON'T MODIFY THIS FILE
-----------------------
PERFORMER: auCDtect Task Manager, ver. 1.5.1RC6 build 1.5.1.7
Copyright (c) 2008-2010 y-soft. All rights reserved
http://y-soft.org
ANALYZER: auCDtect: CD records authenticity detector, version 0.8.2
Copyright (c) 2004 Oleg Berngardt. All rights reserved.
Copyright (c) 2004 Alexander Djourik. All rights reserved.
FILE: Anita Ward - Ring My Bell.flac
Size: 316961284 Hash: E7665B15D3A5CADEFB6C1C04909E831A Accuracy: -m0
Conclusion: CDDA 100%
Signature: 146E599A909327D5B6D12E024A19199705216DCE
 
Скриншот спектра частот
.
 
download >>> Совсем другой CD: ANITA WARD - Ring My Bell - 1995
01. I'm Ready For Your Love
02. Curtains Up
03. This Must Be Love
04. Ring My Bell
05. Sweet Splendour
06. There's No Doubt About It
07. You Lied
08. Make Believe Lovers
09. If I Could Feel That Old Feeling Again
10. Spoiled By Your Love
11. I Won't Stop Loving You
Приватный:
Нет (DHT включён)
Размер:
336.27 Мб (352,603,986 байт) » файлов: 11
Участники:
0 раздают, 0 качают (0 участников всего)
Внешние участники:
5 раздают, 2 качают (7 участников всего) [ Обновить ]
Есть вопросы - пишите личное сообщение пользователю M0p94ok.
14:55
56
Нет комментариев. Ваш будет первым!