Поиск

(Funk) Mountain Mocha Kilimanjaro - Uhuru Peak - 2010, Flac (Image+.Cue) Lossless

(Funk) Mountain Mocha Kilimanjaro - Uhuru Peak - 2010, Flac (Image+.Cue) Lossless
Треклист:
Mountain Mocha Kilimanjaro - Uhuru Peak
Жанр: Funk
Носитель: CD
Страна-Производитель Диска: JP
Год Издания: 2010
Издатель (Лейбл): Back Fire Records, P-Vine Records
Номер По Каталогу: PCD 25107
Страна: Japan
Аудиокодек: Flac
Тип Рипа: Image+.Cue
Битрейт Аудио: Lossless
Продолжительность: 56:22
Источник (Релизер): DenLenZ
Наличие Сканов В Содержимом Раздачи: Нет
 
Треклист
1. Ranbo
2. Theme Of Kilimanjaro
3. Sweet LAS Coke
4. Super Jock Strut
5. Mr. Soul Machine Gun
6. Caught In The Middle
7. Indication
8. A Woman Changed My Life
9. Sympathy
10. Alligator Man
11. The Mantle
12. (Ain't Got Nobody) Just A Rambling Man
13. Love Spectrum
 
Лог Создания Рипа
Exact Audio Copy V0.99 prebeta 5 from 4. May 2009
EAC extraction logfile from 29. October 2012, 16:42
Mountain Mocha Kilimanjaro / Uhuru Peak
Used drive : ATAPI iHAP122 W Adapter: 0 ID: 1
Read mode : Secure
Utilize accurate stream : Yes
Defeat audio cache : Yes
Make use of C2 pointers : No
Read offset correction : 6
Overread into Lead-In and Lead-Out : No
Fill up missing offset samples with silence : Yes
Delete leading and trailing silent blocks : No
Null samples used in CRC calculations : Yes
Used interface : Native Win32 interface for Win NT & 2000
Used output format : User Defined Encoder
Selected bitrate : 1024 kBit/s
Quality : High
Add ID3 tag : No
Command line compressor : C:\Program Files\Exact Audio Copy\FLAC\FLAC.EXE
Additional command line options : -8 -V -T "ARTIST=%a" -T "TITLE=%t" -T "ALBUM=%g" -T "DATE=%y" -T "TRACKNUMBER=%n" -T "GENRE=%m" -T "COMMENT=EAC FLAC -8 Rip By DEN" %s
TOC of the extracted CD
Track | Start | Length | Start sector | End sector
---------------------------------------------------------
1 | 0:00.00 | 3:52.72 | 0 | 17471
2 | 3:52.72 | 4:03.72 | 17472 | 35768
3 | 7:56.69 | 3:34.21 | 35769 | 51839
4 | 11:31.15 | 2:58.11 | 51840 | 65200
5 | 14:29.26 | 6:01.21 | 65201 | 92296
6 | 20:30.47 | 4:28.40 | 92297 | 112436
7 | 24:59.12 | 3:32.26 | 112437 | 128362
8 | 28:31.38 | 4:39.09 | 128363 | 149296
9 | 33:10.47 | 2:23.67 | 149297 | 160088
10 | 35:34.39 | 3:42.14 | 160089 | 176752
11 | 39:16.53 | 4:28.25 | 176753 | 196877
12 | 43:45.03 | 4:00.31 | 196878 | 214908
13 | 47:45.34 | 8:36.57 | 214909 | 253665
Range status and errors
Selected range
Filename E:\MUSIC\WAV\Mountain Mocha Kilimanjaro - Uhuru Peak.wav
Peak level 99.4 %
Range quality 100.0 %
Test CRC 86BD496E
Copy CRC 86BD496E
Copy OK
No errors occurred
AccurateRip summary
Track 1 not present in database
Track 2 not present in database
Track 3 not present in database
Track 4 not present in database
Track 5 not present in database
Track 6 not present in database
Track 7 not present in database
Track 8 not present in database
Track 9 not present in database
Track 10 not present in database
Track 11 not present in database
Track 12 not present in database
Track 13 not present in database
None of the tracks are present in the AccurateRip database
End of status report
 
Содержание Индексной Карты (.Cue)
REM GENRE Funk
REM DATE 2010
REM DISCID B60D360D
REM COMMENT "ExactAudioCopy v0.99pb5"
PERFORMER "Mountain Mocha Kilimanjaro"
TITLE "Uhuru Peak"
FILE "Mountain Mocha Kilimanjaro - Uhuru Peak.flac" WAVE
TRACK 01 AUDIO
TITLE "Ranbo"
PERFORMER "Mountain Mocha Kilimanjaro"
INDEX 01 00:00:00
TRACK 02 AUDIO
TITLE "Theme Of Kilimanjaro"
PERFORMER "Mountain Mocha Kilimanjaro"
INDEX 01 03:52:72
TRACK 03 AUDIO
TITLE "Sweet LAS Coke"
PERFORMER "Mountain Mocha Kilimanjaro"
INDEX 01 07:56:69
TRACK 04 AUDIO
TITLE "Super Jock Strut"
PERFORMER "Mountain Mocha Kilimanjaro"
INDEX 01 11:31:15
TRACK 05 AUDIO
TITLE "Mr. Soul Machine Gun"
PERFORMER "Mountain Mocha Kilimanjaro"
INDEX 01 14:29:26
TRACK 06 AUDIO
TITLE "Caught In The Middle"
PERFORMER "Mountain Mocha Kilimanjaro"
INDEX 01 20:30:47
TRACK 07 AUDIO
TITLE "Indication"
PERFORMER "Mountain Mocha Kilimanjaro"
INDEX 01 24:59:12
TRACK 08 AUDIO
TITLE "A Woman Changed My Life"
PERFORMER "Mountain Mocha Kilimanjaro"
INDEX 01 28:31:38
TRACK 09 AUDIO
TITLE "Sympathy"
PERFORMER "Mountain Mocha Kilimanjaro"
INDEX 01 33:10:47
TRACK 10 AUDIO
TITLE "Alligator Man"
PERFORMER "Mountain Mocha Kilimanjaro"
INDEX 01 35:34:39
TRACK 11 AUDIO
TITLE "The Mantle"
PERFORMER "Mountain Mocha Kilimanjaro"
INDEX 01 39:16:53
TRACK 12 AUDIO
TITLE "(Ain't Got Nobody) Just A Rambling Man"
PERFORMER "Mountain Mocha Kilimanjaro"
INDEX 01 43:45:03
TRACK 13 AUDIO
TITLE "Love Spectrum"
PERFORMER "Mountain Mocha Kilimanjaro"
INDEX 01 47:45:34
 
Лог Проверки Качества
PERFORMER: auCDtect Task Manager, ver. 1.5.1RC6 build 1.5.1.7
Copyright (c) 2008-2010 y-soft. All rights reserved
http://y-soft.org
ANALYZER: auCDtect: CD records authenticity detector, version 0.8.2
Copyright (c) 2004 Oleg Berngardt. All rights reserved.
Copyright (c) 2004 Alexander Djourik. All rights reserved.
FILE: Mountain Mocha Kilimanjaro - Uhuru Peak.flac
Size: 344486999 Hash: DF7F24D5276180F573EFCCE1CD4424F5 Accuracy: -m0
Conclusion: CDDA 100%
Signature: 7F073660F70C8C5F4AC8F09235E4E14CD8D140B0
Приватный:
Нет (DHT включён)
Размер:
330.17 Мб (346,210,812 байт) » файлов: 6
Участники:
0 раздают, 0 качают (0 участников всего)
Внешние участники:
2 раздают, 1 качают (3 участников всего) [ Обновить ]
No seeders - write personal message to user M0p94ok. Нет сидеров - пишите личное сообщение пользователю M0p94ok.
14:55
51
Нет комментариев. Ваш будет первым!