Поиск

(Soul, Rhythm & Blues) Roberta Flack - Killing Me Softly - 1973 (1998 Atlantic Records, 7567-82793-2, Germany), FLAC (image+.cue), lossless

(Soul, Rhythm & Blues) Roberta Flack - Killing Me Softly - 1973 (1998 Atlantic Records, 7567-82793-2, Germany), FLAC (image+.cue), lossless
Треклист:
Roberta FlackKilling Me Softly


Жанр: Soul, Rhythm & Blues
Страна-производитель диска: Germany
Год издания: 1998
Издатель (лейбл): Atlantic Records
Номер по каталогу: 7567-82793-2
Страна: USA
Аудиокодек: FLAC (*.flac)
Тип рипа: image+.cue
Битрейт аудио: lossless
Продолжительность: 41'02"
Источник (релизер): собственный диск
Наличие сканов в содержимом раздачи: 600dpi, JPG

 
tracklist
01. Killing Me Softly with his Song
02. Jesse
03. No Tears
04. I'm the Girl
05. River
06. Conversation Love
07. When You Smile
08. Suzanne

 
eac
Exact Audio Copy V1.0 beta 6 from 9. April 2015
EAC extraction logfile from 31. October 2017, 0:23
Roberta Flack / Killing Me Softly
Used drive : PLEXTOR DVDR PX-891SA Adapter: 0 ID: 2
Read mode : Secure
Utilize accurate stream : Yes
Defeat audio cache : Yes
Make use of C2 pointers : No
Read offset correction : 6
Overread into Lead-In and Lead-Out : No
Fill up missing offset samples with silence : Yes
Delete leading and trailing silent blocks : No
Null samples used in CRC calculations : Yes
Used interface : Installed external ASPI interface
Used output format : User Defined Encoder
Selected bitrate : 320 kBit/s
Quality : High
Add ID3 tag : No
Command line compressor : C:\Program Files\Exact Audio Copy 1.b6\Exact Audio Copy\Flac\flac.exe
Additional command line options : -V -8 -T "Genre=%genre%" -T "Artist=%artist%" -T "Title=%title%" -T "Album=%albumtitle%" -T "Date=%year%" -T "Tracknumber=%tracknr%" -T "Comment=%comment%" %source%
TOC of the extracted CD
Track | Start | Length | Start sector | End sector
---------------------------------------------------------
1 | 0:00.00 | 4:50.33 | 0 | 21782
2 | 4:50.33 | 4:03.37 | 21783 | 40044
3 | 8:53.70 | 4:56.70 | 40045 | 62314
4 | 13:50.65 | 4:55.63 | 62315 | 84502
5 | 18:46.53 | 5:03.42 | 84503 | 107269
6 | 23:50.20 | 3:43.10 | 107270 | 124004
7 | 27:33.30 | 3:44.28 | 124005 | 140832
8 | 31:17.58 | 9:44.62 | 140833 | 184694
Range status and errors
Selected range
Filename L:\Audio\SWF\Roberta Flack\Roberta Flack - Killing Me Softly (1998 Atlantic Records, 7567-82793-2, Germany)\Roberta Flack - Killing Me Softly.wav
Peak level 94.4 %
Extraction speed 2.8 X
Range quality 100.0 %
Test CRC A76A757A
Copy CRC A76A757A
Copy OK
No errors occurred
AccurateRip summary
Track 1 accurately ripped (confidence 33) [7DBB2FFF] (AR v2)
Track 2 accurately ripped (confidence 33) [7A1AB9A3] (AR v2)
Track 3 accurately ripped (confidence 33) [50520329] (AR v2)
Track 4 accurately ripped (confidence 33) [133B3593] (AR v2)
Track 5 accurately ripped (confidence 34) [EC362A34] (AR v2)
Track 6 accurately ripped (confidence 34) [3BF4E08F] (AR v2)
Track 7 accurately ripped (confidence 34) [E77DFE3D] (AR v2)
Track 8 accurately ripped (confidence 34) [84B6FEB4] (AR v2)
All tracks accurately ripped
End of status report
---- CUETools DB Plugin V2.1.6
[CTDB TOCID: cLCbFMEN4jWnl9neZ.5bz0aC7ZI-] found
Submit result: cLCbFMEN4jWnl9neZ.5bz0aC7ZI- has been confirmed
Track | CTDB Status
1 | (152/154) Accurately ripped
2 | (153/154) Accurately ripped
3 | (153/154) Accurately ripped
4 | (153/154) Accurately ripped
5 | (153/154) Accurately ripped
6 | (152/154) Accurately ripped
7 | (152/154) Accurately ripped
8 | (151/154) Accurately ripped
==== Log checksum 9CADF928084F25751E7D061D0179351D628FD4BD26454B21910494292C975741 ====

 
.cue
REM GENRE Soul
REM DATE 1973
REM DISCID 69099E08
REM COMMENT "ExactAudioCopy v1.0b6"
CATALOG 0075678279324
PERFORMER "Roberta Flack"
TITLE "Killing Me Softly"
FILE "Roberta Flack - Killing Me Softly.flac" WAVE
TRACK 01 AUDIO
TITLE "Killing Me Softly With His Song"
PERFORMER "Roberta Flack"
ISRC USAT29901394
INDEX 01 00:00:00
TRACK 02 AUDIO
TITLE "Jesse"
PERFORMER "Roberta Flack"
ISRC USAT29500152
INDEX 00 04:47:58
INDEX 01 04:50:33
TRACK 03 AUDIO
TITLE "No Tears (In The End)"
PERFORMER "Roberta Flack"
ISRC USAT29500153
INDEX 00 08:51:15
INDEX 01 08:53:70
TRACK 04 AUDIO
TITLE "I'm The Girl"
PERFORMER "Roberta Flack"
ISRC USAT29500154
INDEX 00 13:49:50
INDEX 01 13:50:65
TRACK 05 AUDIO
TITLE "River"
PERFORMER "Roberta Flack"
ISRC USAT29500155
INDEX 00 18:44:10
INDEX 01 18:46:53
TRACK 06 AUDIO
TITLE "Conversation Love"
PERFORMER "Roberta Flack"
ISRC USAT29500156
INDEX 00 23:47:53
INDEX 01 23:50:20
TRACK 07 AUDIO
TITLE "When You Smile"
PERFORMER "Roberta Flack"
ISRC USAT29500157
INDEX 00 27:30:70
INDEX 01 27:33:30
TRACK 08 AUDIO
TITLE "Suzanne"
PERFORMER "Roberta Flack"
ISRC USAT29500158
INDEX 00 31:14:34
INDEX 01 31:17:58

 
matrix

Приватный:
Нет (DHT включён)
Размер:
304.49 Мб (319,280,627 байт) » файлов: 10
Участники:
0 раздают, 0 качают (0 участников всего)
Внешние участники:
9 раздают, 3 качают (12 участников всего) [ Обновить ]
Есть вопросы - пишите личное сообщение пользователю M0p94ok.
14:54
56
Нет комментариев. Ваш будет первым!