Поиск

(Funk, Rock, Soul) [CD] Michael Viner's Incredible Bongo Band - Bongo Rock - 1973 (2006), FLAC (image+.cue), lossless

(Funk, Rock, Soul) [CD] Michael Viner's Incredible Bongo Band - Bongo Rock - 1973 (2006), FLAC (image+.cue), lossless
Треклист:
Michael Viner's Incredible Bongo Band - Bongo Rock
Жанр: Funk, Rock, Soul
Носитель: CD
Страна-производитель диска (релиза): UK
Год издания: 1973 (2006)
Издатель (лейбл): Mr Bongo Records
Номер по каталогу: MRBCD043
Страна исполнителя (группы): UK
Аудиокодек: FLAC (*.flac)
Тип рипа: image+.cue
Битрейт аудио: lossless
Продолжительность: 01:18:05
Источник (релизер): собственный рип
Наличие сканов в содержимом раздачи: да
Треклист:
01. Apache
02. Let There Be Drums
03. Bongolia
04. Last Bongo In Belgium
05. Dueling Bongos
06. In-A-Gadda-Da-Vida
07. Raunchy '73
08. Bongo Rock
09. Kiburi (Part 1)
10. Sing Sing Sing
11. (I Can't Get No) Satisfaction
12. Wipeout
13. When The Bed Breaks Down, I'll Meet You In The Spring
14. Pipeline
15. Okey Dokey
16. Sharp Nine
17. Hang Down Your Head, Tom Dooley Your Tie's Caught In Your Zipper
18. Apache (Grand Master Flash Remix)
19. Last Bongo In Belgium (Breakers Mix)
 
Лог создания рипа
Exact Audio Copy V1.1 from 23. June 2015
Отчёт EAC об извлечении, выполненном 5. ноября 2017, 13:10
Incredible Bongo Band / Bongo Rock
Дисковод: ASUS DRW-24B3ST Adapter: 0 ID: 0
Режим чтения : Достоверность
Использование точного потока : Да
Отключение кэша аудио : Да
Использование указателей C2 : Нет
Коррекция смещения при чтении : 6
Способность читать области Lead-in и Lead-out : Нет
Заполнение пропущенных сэмплов тишиной : Да
Удаление блоков с тишиной в начале и конце : Нет
При вычислениях CRC использовались нулевые сэмплы : Да
Интерфейс : Установленный внешний ASPI-интерфейс
Выходной формат : Пользовательский кодировщик
Выбранный битрейт : 1024 kBit/s
Качество : Высокий
Добавление ID3-тега : Нет
Утилита сжатия : C:\Program Files (x86)\Exact Audio Copy\Flac\flac.exe
Дополнительные параметры : -V -8 -T "Date=%year%" -T "Genre=%genre%" %source%
TOC извлечённого CD
Трек | Старт | Длительность | Начальный сектор | Конечный сектор
---------------------------------------------------------------------
1 | 0:00.00 | 4:53.32 | 0 | 22006
2 | 4:53.32 | 2:41.25 | 22007 | 34106
3 | 7:34.57 | 2:15.23 | 34107 | 44254
4 | 9:50.05 | 6:55.55 | 44255 | 75434
5 | 16:45.60 | 2:58.27 | 75435 | 88811
6 | 19:44.12 | 7:43.38 | 88812 | 123574
7 | 27:27.50 | 3:24.40 | 123575 | 138914
8 | 30:52.15 | 2:39.22 | 138915 | 150861
9 | 33:31.37 | 2:17.48 | 150862 | 161184
10 | 35:49.10 | 4:16.30 | 161185 | 180414
11 | 40:05.40 | 4:03.25 | 180415 | 198664
12 | 44:08.65 | 4:32.10 | 198665 | 219074
13 | 48:41.00 | 2:35.35 | 219075 | 230734
14 | 51:16.35 | 3:55.17 | 230735 | 248376
15 | 55:11.52 | 2:52.38 | 248377 | 261314
16 | 58:04.15 | 3:16.07 | 261315 | 276021
17 | 61:20.22 | 2:45.15 | 276022 | 288411
18 | 64:05.37 | 7:29.65 | 288412 | 322151
19 | 71:35.27 | 6:29.50 | 322152 | 351376
Характеристики диапазона извлечения и сообщения об ошибках
Выбранный диапазон
Имя файла E:\Torrents\Incredible Bongo Band - 1973 - Bongo Rock\Incredible Bongo Band - Bongo Rock.wav
Пиковый уровень 100.0 %
Скорость извлечения 10.0 X
Качество диапазона 100.0 %
CRC теста E10C9C14
CRC копии E10C9C14
Копирование... OK
Ошибок не произошло
AccurateRip: сводка
Трек 1 : извлечено точно (доверие 2) [8D83FE3C] (AR v1)
Трек 2 : извлечено точно (доверие 2) [649D47EB] (AR v1)
Трек 3 : извлечено точно (доверие 2) [2C52DF1F] (AR v1)
Трек 4 : извлечено точно (доверие 2) [2B37754F] (AR v1)
Трек 5 : извлечено точно (доверие 2) [4A879D56] (AR v1)
Трек 6 : извлечено точно (доверие 2) [D4D3461F] (AR v1)
Трек 7 : извлечено точно (доверие 2) [BB4B6F49] (AR v1)
Трек 8 : извлечено точно (доверие 2) [03793FE3] (AR v1)
Трек 9 : извлечено точно (доверие 2) [18073990] (AR v1)
Трек 10 : извлечено точно (доверие 2) [CD741F27] (AR v1)
Трек 11 : извлечено точно (доверие 2) [8F603D82] (AR v1)
Трек 12 : извлечено точно (доверие 2) [1B7DED82] (AR v1)
Трек 13 : извлечено точно (доверие 2) [BCDD6577] (AR v1)
Трек 14 : извлечено точно (доверие 2) [505FD211] (AR v1)
Трек 15 : извлечено точно (доверие 2) [FEFED1EF] (AR v1)
Трек 16 : извлечено точно (доверие 2) [6FE07343] (AR v1)
Трек 17 : извлечено точно (доверие 2) [BCFE0CD3] (AR v1)
Трек 18 : извлечено точно (доверие 2) [13C84191] (AR v1)
Трек 19 : извлечено точно (доверие 2) [690991E3] (AR v1)
Все треки извлечены точно
Конец отчёта
==== Контрольная сумма отчёта 2FEF90135F0FF18A4334A037EFC57FCB9DA1174610309EAEE991EC6BAEF536DC ====
 
Замер динамического диапазона (DR)
foobar2000 1.3.16 / Замер динамического диапазона (DR) 1.1.1
Дата отчёта: 2017-11-05 13:13:39
--------------------------------------------------------------------------------
Анализ: Incredible Bongo Band / Bongo Rock
--------------------------------------------------------------------------------
DR Пики RMS Продолжительность трека
--------------------------------------------------------------------------------
DR8 0.00 дБ -9.89 дБ 4:53 01-Apache
DR8 0.00 дБ -10.25 дБ 2:41 02-Let There Be Drums
DR9 0.00 дБ -10.28 дБ 2:15 03-Bongolia
DR8 0.00 дБ -9.61 дБ 6:56 04-Last Bongo in Belgium
DR9 0.00 дБ -12.19 дБ 2:58 05-Dueling Bongos
DR8 0.00 дБ -9.57 дБ 7:44 06-In-A-Gadda-Da-Vida
DR8 0.00 дБ -9.62 дБ 3:25 07-Raunchy '73
DR10 0.00 дБ -11.11 дБ 2:39 08-Bongo Rock
DR9 0.00 дБ -11.06 дБ 2:18 09-Kiburi, Part 1
DR9 0.00 дБ -11.72 дБ 4:16 10-Sing, Sing, Sing
DR9 0.00 дБ -10.48 дБ 4:03 11-(I Can't Get No) Satisfaction
DR9 0.00 дБ -11.24 дБ 4:32 12-Wipeout
DR11 0.00 дБ -13.51 дБ 2:35 13-When the Bed Breaks Down, I'll Meet You in the Spring
DR9 0.00 дБ -11.65 дБ 3:55 14-Pipeline
DR9 0.00 дБ -11.85 дБ 2:53 15-Okey Dokey
DR10 0.00 дБ -11.45 дБ 3:16 16-Sharp Nine
DR10 0.00 дБ -13.88 дБ 2:45 17-Hang Down Your Head Tom Dooley, Your Tie's Caught in Your Zipper
DR9 0.00 дБ -11.52 дБ 7:30 18-Apache (Grand Master Flash remix)
DR8 0.00 дБ -9.67 дБ 6:30 19-Last Bongo in Belgium (Breakers mix)
--------------------------------------------------------------------------------
Количество треков: 19
Реальные значения DR: DR9
Частота: 44100 Гц
Каналов: 2
Разрядность: 16
Битрейт: 898 кбит/с
Кодек: FLAC
================================================================================
 
Об исполнителе (группе)
Приватный:
Нет (DHT включён)
Размер:
542.33 Мб (568,671,391 байт) » файлов: 12
Участники:
0 раздают, 0 качают (0 участников всего)
Внешние участники:
8 раздают, 2 качают (10 участников всего) [ Обновить ]
Есть вопросы - пишите личное сообщение пользователю M0p94ok.
14:56
68
Нет комментариев. Ваш будет первым!