Поиск

(Funk, Soul) [CD] VA - Ministry Of Sound - Downtown Funk (3-CD) - 2015, FLAC (tracks+.cue), lossless

(Funk, Soul) [CD] VA - Ministry Of Sound - Downtown Funk (3-CD) - 2015, FLAC (tracks+.cue), lossless
Треклист:
Ministry Of Sound - Downtown Funk (3-CD)
Жанр: Funk, Soul
Носитель: CD
Страна-производитель диска (релиза): UK
Год издания: 2015
Издатель (лейбл): Ministry Of Sound
Номер по каталогу: B001FJ5DYS
Аудиокодек: FLAC (*.flac)
Тип рипа: tracks+.cue
Битрейт аудио: lossless
Продолжительность: 03:57:50
Источник (релизер): WRZmusic (Wilhelm Reich)
Наличие сканов в содержимом раздачи: нет
Треклист:
 
CD 1: (01:14:47)
01 James Brown - Sex Machine [5:18]
02 Kool & The Gang - Jungle Boogie [3:04]
03 Average White Band - Pick Up The Pieces [4:00]
04 Charles Wright & The Watts 103rd Street Rhythm Band - Express Yourself [3:52]
05 O'Jays - For The Love Of Money [3:45]
06 Sly & The Family Stone - Dance To The Music [2:57]
07 Temptations - Papa Was A Rollin' Stone [6:58]
08 Earth Wind & Fire - Shining Star [2:52]
09 Isley Brothers - It's Our Thing [2:46]
10 Isaac Hayes - Theme From Shaft [4:36]
11 Blackbyrds - Rock Creek Park [4:35]
12 Commodores - Brick House [3:35]
13 Wild Cherry - Play That Funky Music [3:11]
14 Mohawks - The Champ [2:38]
15 Edwin Starr - War [3:27]
16 KC & The Sunshine Band - Get Down Tonight [3:11]
17 Gap Band - I Don't Believe You Want To Get Up And Dance (Ooops Up Side Your Head) [3:24]
18 Tom Browne - Funkin' For Jamaica (NY) [3:18]
19 Rick James - Super Freak [3:25]
20 Sugarhill Gang - Rapper's Delight [3:56]
 
Лог создания рипа
Exact Audio Copy V1.1 from 23. June 2015
EAC extraction logfile from 21. July 2015, 11:26
Various Artists / Down Town Funk (Ministry Of Sound) (2015) CD1
Used drive : hp DVDRAM GU90N Adapter: 1 ID: 0
Read mode : Secure
Utilize accurate stream : Yes
Defeat audio cache : Yes
Make use of C2 pointers : No
Read offset correction : 102
Overread into Lead-In and Lead-Out : No
Fill up missing offset samples with silence : Yes
Delete leading and trailing silent blocks : No
Null samples used in CRC calculations : Yes
Used interface : Native Win32 interface for Win NT & 2000
Gap handling : Appended to previous track
Used output format : User Defined Encoder
Selected bitrate : 1024 kBit/s
Quality : High
Add ID3 tag : No
Command line compressor : C:\Program Files (x86)\Exact Audio Copy\Flac\flac.exe
Additional command line options : -8 -V -T "ARTIST=%artist%" -T "TITLE=%title%" -T "ALBUM=%albumtitle%" -T "DATE=%year%" -T "TRACKNUMBER=%tracknr%" -T "GENRE=%genre%" -T "PERFORMER=%albuminterpret%" -T "COMPOSER=%composer%" %haslyrics%--tag-from-file=LYRICS="%lyricsfile%"%haslyrics% -T "ALBUMARTIST=%albumartist%" -T "DISCNUMBER=%cdnumber%" -T "TOTALDISCS=%totalcds%" -T "TOTALTRACKS=%numtracks%" -T "COMMENT=%comment%" %source% -o %dest%
TOC of the extracted CD
Track | Start | Length | Start sector | End sector
---------------------------------------------------------
1 | 0:00.00 | 5:17.44 | 0 | 23818
2 | 5:17.44 | 3:04.07 | 23819 | 37625
3 | 8:21.51 | 4:00.15 | 37626 | 55640
4 | 12:21.66 | 3:51.44 | 55641 | 73009
5 | 16:13.35 | 3:44.70 | 73010 | 89879
6 | 19:58.30 | 2:57.00 | 89880 | 103154
7 | 22:55.30 | 6:57.46 | 103155 | 134475
8 | 29:53.01 | 2:51.70 | 134476 | 147370
9 | 32:44.71 | 2:46.07 | 147371 | 159827
10 | 35:31.03 | 4:35.46 | 159828 | 180498
11 | 40:06.49 | 4:34.58 | 180499 | 201106
12 | 44:41.32 | 3:34.54 | 201107 | 217210
13 | 48:16.11 | 3:10.73 | 217211 | 231533
14 | 51:27.09 | 2:38.35 | 231534 | 243418
15 | 54:05.44 | 3:27.32 | 243419 | 258975
16 | 57:33.01 | 3:11.18 | 258976 | 273318
17 | 60:44.19 | 3:23.60 | 273319 | 288603
18 | 64:08.04 | 3:18.33 | 288604 | 303486
19 | 67:26.37 | 3:25.08 | 303487 | 318869
20 | 70:51.45 | 3:55.53 | 318870 | 336547
Track 1
Filename K:\EAC\01 - James Brown - Sex Machine [1970].wav
Pre-gap length 0:00:02.00
Peak level 98.8 %
Extraction speed 2.6 X
Track quality 100.0 %
Test CRC D40C7246
Copy CRC D40C7246
Track not present in AccurateRip database
Copy OK
Track 2
Filename K:\EAC\02 - Kool & The Gang - Jungle Boogie [1973].wav
Peak level 85.0 %
Extraction speed 2.7 X
Track quality 100.0 %
Test CRC 605AB1DA
Copy CRC 605AB1DA
Track not present in AccurateRip database
Copy OK
Track 3
Filename K:\EAC\03 - Average White Band - Pick Up The Pieces [1974].wav
Peak level 98.8 %
Extraction speed 2.9 X
Track quality 100.0 %
Test CRC AFFB46CC
Copy CRC AFFB46CC
Track not present in AccurateRip database
Copy OK
Track 4
Filename K:\EAC\04 - Charles Wright & The Watts 103rd Street Rhythm Band - Express Yourself [1970].wav
Peak level 98.8 %
Extraction speed 3.1 X
Track quality 100.0 %
Test CRC 4FAFA5E5
Copy CRC 4FAFA5E5
Track not present in AccurateRip database
Copy OK
Track 5
Filename K:\EAC\05 - O'Jays - For The Love Of Money [1973].wav
Peak level 98.8 %
Extraction speed 3.3 X
Track quality 100.0 %
Test CRC F70858A5
Copy CRC F70858A5
Track not present in AccurateRip database
Copy OK
Track 6
Filename K:\EAC\06 - Sly & The Family Stone - Dance To The Music [1968].wav
Peak level 98.8 %
Extraction speed 3.3 X
Track quality 100.0 %
Test CRC EC70E7D5
Copy CRC EC70E7D5
Track not present in AccurateRip database
Copy OK
Track 7
Filename K:\EAC\07 - Temptations - Papa Was A Rollin' Stone [1972].wav
Peak level 98.8 %
Extraction speed 3.9 X
Track quality 100.0 %
Test CRC 18B52A3D
Copy CRC 18B52A3D
Track not present in AccurateRip database
Copy OK
Track 8
Filename K:\EAC\08 - Earth Wind & Fire - Shining Star [1975].wav
Peak level 98.8 %
Extraction speed 3.6 X
Track quality 100.0 %
Test CRC EDC8929A
Copy CRC EDC8929A
Track not present in AccurateRip database
Copy OK
Track 9
Filename K:\EAC\09 - Isley Brothers - It's Our Thing [1969].wav
Peak level 98.8 %
Extraction speed 3.8 X
Track quality 100.0 %
Test CRC CD4E168F
Copy CRC CD4E168F
Track not present in AccurateRip database
Copy OK
Track 10
Filename K:\EAC\10 - Isaac Hayes - Theme From Shaft [1971].wav
Peak level 98.8 %
Extraction speed 4.2 X
Track quality 100.0 %
Test CRC EECC5AC7
Copy CRC EECC5AC7
Track not present in AccurateRip database
Copy OK
Track 11
Filename K:\EAC\11 - Blackbyrds - Rock Creek Park [1975].wav
Peak level 98.8 %
Extraction speed 4.3 X
Track quality 100.0 %
Test CRC BE44A54D
Copy CRC BE44A54D
Track not present in AccurateRip database
Copy OK
Track 12
Filename K:\EAC\12 - Commodores - Brick House [1977].wav
Peak level 98.8 %
Extraction speed 4.2 X
Track quality 100.0 %
Test CRC 94A8DA98
Copy CRC 94A8DA98
Track not present in AccurateRip database
Copy OK
Track 13
Filename K:\EAC\13 - Wild Cherry - Play That Funky Music [1976].wav
Peak level 98.8 %
Extraction speed 4.3 X
Track quality 100.0 %
Test CRC 7B9C260F
Copy CRC 7B9C260F
Track not present in AccurateRip database
Copy OK
Track 14
Filename K:\EAC\14 - Mohawks - The Champ [1969].wav
Peak level 98.8 %
Extraction speed 4.3 X
Track quality 100.0 %
Test CRC 8F3CCD3C
Copy CRC 8F3CCD3C
Track not present in AccurateRip database
Copy OK
Track 15
Filename K:\EAC\15 - Edwin Starr - War [1970].wav
Peak level 78.3 %
Extraction speed 4.5 X
Track quality 100.0 %
Test CRC 518CFBCB
Copy CRC 518CFBCB
Track not present in AccurateRip database
Copy OK
Track 16
Filename K:\EAC\16 - KC & The Sunshine Band - Get Down Tonight [1975].wav
Peak level 98.8 %
Extraction speed 3.4 X
Track quality 99.9 %
Test CRC 0261D80E
Copy CRC 0261D80E
Track not present in AccurateRip database
Copy OK
Track 17
Filename K:\EAC\17 - Gap Band - I Don't Believe You Want To Get Up And Dance (Ooops Up Side Your Head) [1980].wav
Peak level 98.8 %
Extraction speed 4.6 X
Track quality 100.0 %
Test CRC 836FB036
Copy CRC 836FB036
Track not present in AccurateRip database
Copy OK
Track 18
Filename K:\EAC\18 - Tom Browne - Funkin' For Jamaica (NY) [1980].wav
Peak level 98.8 %
Extraction speed 4.7 X
Track quality 100.0 %
Test CRC 50784CED
Copy CRC 50784CED
Track not present in AccurateRip database
Copy OK
Track 19
Filename K:\EAC\19 - Rick James - Super Freak [1981].wav
Peak level 98.8 %
Extraction speed 4.9 X
Track quality 100.0 %
Test CRC 4ECC5320
Copy CRC 4ECC5320
Track not present in AccurateRip database
Copy OK
Track 20
Filename K:\EAC\20 - Sugarhill Gang - Rapper's Delight [1979].wav
Peak level 98.8 %
Extraction speed 4.0 X
Track quality 99.9 %
Test CRC 02009D89
Copy CRC 02009D89
Track not present in AccurateRip database
Copy OK
None of the tracks are present in the AccurateRip database
No errors occurred
End of status report
---- CUETools DB Plugin V2.1.6
[CTDB TOCID: TeyU4x_ObTmRd8mA9ee7HxI31cg-] found
Submit result: TeyU4x_ObTmRd8mA9ee7HxI31cg- has been confirmed
Track | CTDB Status
1 | (4/4) Accurately ripped
2 | (4/4) Accurately ripped
3 | (4/4) Accurately ripped
4 | (3/4) Accurately ripped, or (1/4) differs in 28 samples @02:13:05,02:39:41,03:49:56-03:49:57,03:50:33,03:51:16,03:51:39
5 | (4/4) Accurately ripped
6 | (4/4) Accurately ripped
7 | (4/4) Accurately ripped
8 | (4/4) Accurately ripped
9 | (4/4) Accurately ripped
10 | (4/4) Accurately ripped
11 | (4/4) Accurately ripped
12 | (3/4) Accurately ripped, or (1/4) differs in 8 samples @03:27:19,03:33:09
13 | (3/4) Accurately ripped, or (1/4) differs in 4 samples @03:09:73
14 | (4/4) Accurately ripped
15 | (4/4) Accurately ripped
16 | (4/4) Accurately ripped
17 | (4/4) Accurately ripped
18 | (4/4) Accurately ripped
19 | (4/4) Accurately ripped
20 | (3/4) Accurately ripped, or (1/4) differs in 3 samples @03:55:05
==== Log checksum 880D76091FD41FB95C392988942FE29A6D4A51D43BC07517CB2355F0A74A4C18 ====
 
Содержание индексной карты (.CUE)
REM GENRE Funk
REM DATE 2015
REM DISCID 37118714
REM COMMENT "ExactAudioCopy v1.1"
PERFORMER "Various Artists"
TITLE "Down Town Funk (Ministry Of Sound) (2015) CD1"
FILE "01 - James Brown - Sex Machine [1970].wav" WAVE
TRACK 01 AUDIO
TITLE "Sex Machine [1970]"
PERFORMER "James Brown"
INDEX 01 00:00:00
FILE "02 - Kool & The Gang - Jungle Boogie [1973].wav" WAVE
TRACK 02 AUDIO
TITLE "Jungle Boogie [1973]"
PERFORMER "Kool & The Gang"
INDEX 01 00:00:00
FILE "03 - Average White Band - Pick Up The Pieces [1974].wav" WAVE
TRACK 03 AUDIO
TITLE "Pick Up The Pieces [1974]"
PERFORMER "Average White Band"
INDEX 01 00:00:00
FILE "04 - Charles Wright & The Watts 103rd Street Rhythm Band - Express Yourself [1970].wav" WAVE
TRACK 04 AUDIO
TITLE "Express Yourself [1970]"
PERFORMER "Charles Wright & The Watts 103rd Street Rhythm Band"
INDEX 01 00:00:00
FILE "05 - O'Jays - For The Love Of Money [1973].wav" WAVE
TRACK 05 AUDIO
TITLE "For The Love Of Money [1973]"
PERFORMER "O'Jays"
INDEX 01 00:00:00
FILE "06 - Sly & The Family Stone - Dance To The Music [1968].wav" WAVE
TRACK 06 AUDIO
TITLE "Dance To The Music [1968]"
PERFORMER "Sly & The Family Stone"
INDEX 01 00:00:00
FILE "07 - Temptations - Papa Was A Rollin' Stone [1972].wav" WAVE
TRACK 07 AUDIO
TITLE "Papa Was A Rollin' Stone [1972]"
PERFORMER "Temptations"
INDEX 01 00:00:00
FILE "08 - Earth Wind & Fire - Shining Star [1975].wav" WAVE
TRACK 08 AUDIO
TITLE "Shining Star [1975]"
PERFORMER "Earth Wind & Fire"
INDEX 01 00:00:00
FILE "09 - Isley Brothers - It's Our Thing [1969].wav" WAVE
TRACK 09 AUDIO
TITLE "It's Our Thing [1969]"
PERFORMER "Isley Brothers"
INDEX 01 00:00:00
FILE "10 - Isaac Hayes - Theme From Shaft [1971].wav" WAVE
TRACK 10 AUDIO
TITLE "Theme From Shaft [1971]"
PERFORMER "Isaac Hayes"
INDEX 01 00:00:00
FILE "11 - Blackbyrds - Rock Creek Park [1975].wav" WAVE
TRACK 11 AUDIO
TITLE "Rock Creek Park [1975]"
PERFORMER "Blackbyrds"
INDEX 01 00:00:00
FILE "12 - Commodores - Brick House [1977].wav" WAVE
TRACK 12 AUDIO
TITLE "Brick House [1977]"
PERFORMER "Commodores"
INDEX 01 00:00:00
FILE "13 - Wild Cherry - Play That Funky Music [1976].wav" WAVE
TRACK 13 AUDIO
TITLE "Play That Funky Music [1976]"
PERFORMER "Wild Cherry"
INDEX 01 00:00:00
FILE "14 - Mohawks - The Champ [1969].wav" WAVE
TRACK 14 AUDIO
TITLE "The Champ [1969]"
PERFORMER "Mohawks"
INDEX 01 00:00:00
FILE "15 - Edwin Starr - War [1970].wav" WAVE
TRACK 15 AUDIO
TITLE "War [1970]"
PERFORMER "Edwin Starr"
INDEX 01 00:00:00
FILE "16 - KC & The Sunshine Band - Get Down Tonight [1975].wav" WAVE
TRACK 16 AUDIO
TITLE "Get Down Tonight [1975]"
PERFORMER "KC & The Sunshine Band"
INDEX 01 00:00:00
FILE "17 - Gap Band - I Don't Believe You Want To Get Up And Dance (Ooops Up Side Your Head) [1980].wav" WAVE
TRACK 17 AUDIO
TITLE "I Don't Believe You Want To Get Up And Dance (Ooops Up Side Your Head) [1980]"
PERFORMER "Gap Band"
INDEX 01 00:00:00
FILE "18 - Tom Browne - Funkin' For Jamaica (NY) [1980].wav" WAVE
TRACK 18 AUDIO
TITLE "Funkin' For Jamaica (NY) [1980]"
PERFORMER "Tom Browne"
INDEX 01 00:00:00
FILE "19 - Rick James - Super Freak [1981].wav" WAVE
TRACK 19 AUDIO
TITLE "Super Freak [1981]"
PERFORMER "Rick James"
INDEX 01 00:00:00
FILE "20 - Sugarhill Gang - Rapper's Delight [1979].wav" WAVE
TRACK 20 AUDIO
TITLE "Rapper's Delight [1979]"
PERFORMER "Sugarhill Gang"
INDEX 01 00:00:00
 
Лог проверки качества:
-----------------------
DON'T MODIFY THIS FILE
-----------------------
PERFORMER: auCDtect Task Manager, ver. 1.6.0 RC1 build 1.6.0.1
Copyright (c) 2008-2010 y-soft. All rights reserved
http://y-soft.org
ANALYZER: auCDtect: CD records authenticity detector, version 0.8.2
Copyright (c) 2004 Oleg Berngardt. All rights reserved.
Copyright (c) 2004 Alexander Djourik. All rights reserved.
FILE: 01 - James Brown - Sex Machine [1970].flac
Size: 37654809 Hash: 6986ADAC8F60E0712B072B9B5D46F21F Accuracy: -m0
Conclusion: CDDA 100%
Signature: 4BC9619445F81449F59B836C164DDBF6CA3B8B33
FILE: 02 - Kool & The Gang - Jungle Boogie [1973].flac
Size: 24793729 Hash: 1A8ACF252208976D54A6B05ED45319F9 Accuracy: -m0
Conclusion: CDDA 100%
Signature: D47F14BA08E08D8BFF12F4D72A990E4FD3F5B582
FILE: 03 - Average White Band - Pick Up The Pieces [1974].flac
Size: 29493971 Hash: FF5C44316158EE0515477D5E2B843A46 Accuracy: -m0
Conclusion: CDDA 100%
Signature: D2CD9899FCBDF622941A03AB06E8C8F2323D304C
FILE: 04 - Charles Wright & The Watts 103rd Street Rhythm Band - Express Yourself [1970].flac
Size: 27719274 Hash: 4C32F7E138C1039864AF2C2ADAE32AC2 Accuracy: -m0
Conclusion: CDDA 100%
Signature: 745332F84138402394DE58E9A3A44FB4C8310A27
FILE: 05 - O'Jays - For The Love Of Money [1973].flac
Size: 27268378 Hash: 1B76586960D1EAAF790F8F8D88BDBBBD Accuracy: -m0
Conclusion: CDDA 100%
Signature: D445D378A70F61E0B92142DFF6E4F281F437E210
FILE: 06 - Sly & The Family Stone - Dance To The Music [1968].flac
Size: 21235627 Hash: 80891107D40097C89097F6FC5602F272 Accuracy: -m0
Conclusion: CDDA 100%
Signature: 363774E1CBB36B536B807BC6A802BB6839C14FF5
FILE: 07 - Temptations - Papa Was A Rollin' Stone [1972].flac
Size: 47654219 Hash: 94CF7A6DD02B4C2221179A9D3849B307 Accuracy: -m0
Conclusion: CDDA 100%
Signature: B67055E781DDE77430D4816A52883C0A2D497AA0
FILE: 08 - Earth Wind & Fire - Shining Star [1975].flac
Size: 21041394 Hash: 5B9993A7892689562A5277D05EAD343A Accuracy: -m0
Conclusion: CDDA 100%
Signature: E1614C695DD5346091034FCA0C80F23AEFCB1CB0
FILE: 09 - Isley Brothers - It's Our Thing [1969].flac
Size: 19938571 Hash: 99D525556C32643D93EBE9410789E22B Accuracy: -m0
Conclusion: CDDA 100%
Signature: 36E5421237634201C298D0A4502112E1E6195874
FILE: 10 - Isaac Hayes - Theme From Shaft [1971].flac
Size: 36090589 Hash: 24E4ACD52E55FC76A64DDF5D7093C141 Accuracy: -m0
Conclusion: CDDA 100%
Signature: 286A0D95FA30B4731153C02BD6B99CA05CC65905
FILE: 11 - Blackbyrds - Rock Creek Park [1975].flac
Size: 31390120 Hash: 26212C1B340401D2D62714E4639B18BF Accuracy: -m0
Conclusion: CDDA 99%
Signature: 0B86706E055BA0BAE88327FC7A6466AE421534D9
FILE: 12 - Commodores - Brick House [1977].flac
Size: 24427974 Hash: CF61B5F8AD387E92020DC2E7581AE06F Accuracy: -m0
Conclusion: CDDA 99%
Signature: 92B54C098284B4FF9FE6E428238F71DD00E13A77
FILE: 13 - Wild Cherry - Play That Funky Music [1976].flac
Size: 22311850 Hash: F3E7CD45FF3681878C4B7BE513BC582F Accuracy: -m0
Conclusion: CDDA 100%
Signature: 79CE36A26347DFF0FA3E631ACDD039D9FEAE2464
FILE: 14 - Mohawks - The Champ [1969].flac
Size: 17683011 Hash: 7F7F202AFAE518B8C7682D28CF14F28B Accuracy: -m0
Conclusion: CDDA 99%
Signature: 9ABA3D6DB75435C0176AEDDC92A6F18792A4EE01
FILE: 15 - Edwin Starr - War [1970].flac
Size: 17264388 Hash: 686F0CBAA8ADB5B4FE4CE0011C80B93F Accuracy: -m0
Conclusion: CDDA 100%
Signature: 1A59BC22DA21C11412C087CEF309627652406AD1
FILE: 16 - KC & The Sunshine Band - Get Down Tonight [1975].flac
Size: 25191761 Hash: AB449CC54BF45A1927576813B2EB98C5 Accuracy: -m0
Conclusion: CDDA 100%
Signature: B4857970777E10BCC2551708245552B0B0E1F20F
FILE: 17 - Gap Band - I Don't Believe You Want To Get Up And Dance (Ooops Up Side Your Head) [1980].flac
Size: 24689566 Hash: 5444A185942E40AFC68E75560D5D6AC5 Accuracy: -m0
Conclusion: CDDA 99%
Signature: 291945D90FAC96FB6ED071E1ADE33DC668FD1D6D
FILE: 18 - Tom Browne - Funkin' For Jamaica (NY) [1980].flac
Size: 25046328 Hash: 2EC06251B1F8100232DF0F0217330C49 Accuracy: -m0
Conclusion: CDDA 99%
Signature: D6D6EB3A74383AA7214308858AAEA898029962E8
FILE: 19 - Rick James - Super Freak [1981].flac
Size: 26127399 Hash: 4129A7E63D9ACBF068EFEE79E0B7E5FB Accuracy: -m0
Conclusion: CDDA 100%
Signature: CE614CAB9B585EBB7806855411DC35783CEA295A
FILE: 20 - Sugarhill Gang - Rapper's Delight [1979].flac
Size: 27938741 Hash: 71D8D309867F3645899909729361321C Accuracy: -m0
Conclusion: CDDA 100%
Signature: 3DFA9B8FD501324E85684793AD78666CEC22B5BD
 
CD 2: (01:14:21)
01 Michael Jackson - Don't Stop 'Til You Get Enough [4:00]
02 Chic - Le Freak [3:33]
03 Marvin Gaye - Got To Give It Up [4:04]
04 George Benson - Give Me The Night [3:43]
05 Oliver Cheatham - Get Down Saturday Night [3:57]
06 Whispers - And The Beat Goes On [3:25]
07 Jackson Sisters - I Believe In Miracles [2:58]
08 Gwen McCrae - All This Love That I'm Giving [3:51]
09 Aretha Franklin - Rock Steady [3:10]
10 Chi-Lites - Are You My Woman (Tell Me So) [3:00]
11 Peaches & Herb - Shake Your Groove Thing [3:25]
12 Heatwave - Boogie Nights [3:36]
13 Diana Ross - Upside Down [3:39]
14 Odyssey - Going Back To My Roots [3:24]
15 Shalamar - There It Is [4:24]
16 Yarbrough & Peoples - Don't Stop The Music [3:33]
17 Bobby Thurston - Check Out The Groove [3:49]
18 Brass Construction - Movin' [3:45]
19 Roy Ayers - Love Will Bring Us Back Together Again [5:52]
20 Bill Withers - Who Is He (And What Is He To You) [3:12]
 
Лог создания рипа
Exact Audio Copy V1.1 from 23. June 2015
EAC extraction logfile from 21. July 2015, 12:29
Various Artists / Down Town Funk (Ministry Of Sound) (2015) CD2
Used drive : hp DVDRAM GU90N Adapter: 1 ID: 0
Read mode : Secure
Utilize accurate stream : Yes
Defeat audio cache : Yes
Make use of C2 pointers : No
Read offset correction : 102
Overread into Lead-In and Lead-Out : No
Fill up missing offset samples with silence : Yes
Delete leading and trailing silent blocks : No
Null samples used in CRC calculations : Yes
Used interface : Native Win32 interface for Win NT & 2000
Gap handling : Appended to previous track
Used output format : User Defined Encoder
Selected bitrate : 1024 kBit/s
Quality : High
Add ID3 tag : No
Command line compressor : C:\Program Files (x86)\Exact Audio Copy\Flac\flac.exe
Additional command line options : -8 -V -T "ARTIST=%artist%" -T "TITLE=%title%" -T "ALBUM=%albumtitle%" -T "DATE=%year%" -T "TRACKNUMBER=%tracknr%" -T "GENRE=%genre%" -T "PERFORMER=%albuminterpret%" -T "COMPOSER=%composer%" %haslyrics%--tag-from-file=LYRICS="%lyricsfile%"%haslyrics% -T "ALBUMARTIST=%albumartist%" -T "DISCNUMBER=%cdnumber%" -T "TOTALDISCS=%totalcds%" -T "TOTALTRACKS=%numtracks%" -T "COMMENT=%comment%" %source% -o %dest%
TOC of the extracted CD
Track | Start | Length | Start sector | End sector
---------------------------------------------------------
1 | 0:00.00 | 3:59.72 | 0 | 17996
2 | 3:59.72 | 3:33.26 | 17997 | 33997
3 | 7:33.23 | 4:04.29 | 33998 | 52326
4 | 11:37.52 | 3:43.08 | 52327 | 69059
5 | 15:20.60 | 3:56.62 | 69060 | 86821
6 | 19:17.47 | 3:25.12 | 86822 | 102208
7 | 22:42.59 | 2:57.73 | 102209 | 115556
8 | 25:40.57 | 3:51.36 | 115557 | 132917
9 | 29:32.18 | 3:09.72 | 132918 | 147164
10 | 32:42.15 | 3:00.02 | 147165 | 160666
11 | 35:42.17 | 3:25.31 | 160667 | 176072
12 | 39:07.48 | 3:35.43 | 176073 | 192240
13 | 42:43.16 | 3:39.18 | 192241 | 208683
14 | 46:22.34 | 3:24.03 | 208684 | 223986
15 | 49:46.37 | 4:23.57 | 223987 | 243768
16 | 54:10.19 | 3:32.59 | 243769 | 259727
17 | 57:43.03 | 3:49.11 | 259728 | 276913
18 | 61:32.14 | 3:45.32 | 276914 | 293820
19 | 65:17.46 | 5:52.15 | 293821 | 320235
20 | 71:09.61 | 3:11.49 | 320236 | 334609
Track 1
Filename K:\EAC\01 - Michael Jackson - Don't Stop 'Til You Get Enough [1979].wav
Pre-gap length 0:00:02.00
Peak level 91.0 %
Extraction speed 2.5 X
Track quality 100.0 %
Test CRC 9B06439A
Copy CRC 9B06439A
Track not present in AccurateRip database
Copy OK
Track 2
Filename K:\EAC\02 - Chic - Le Freak [1978].wav
Peak level 98.8 %
Extraction speed 2.7 X
Track quality 100.0 %
Test CRC 1726691F
Copy CRC 1726691F
Track not present in AccurateRip database
Copy OK
Track 3
Filename K:\EAC\03 - Marvin Gaye - Got To Give It Up [1977].wav
Peak level 98.8 %
Extraction speed 2.9 X
Track quality 100.0 %
Test CRC E6AF2EAD
Copy CRC E6AF2EAD
Track not present in AccurateRip database
Copy OK
Track 4
Filename K:\EAC\04 - George Benson - Give Me The Night [1980].wav
Peak level 98.8 %
Extraction speed 2.4 X
Track quality 99.9 %
Test CRC 0406A55B
Copy CRC 0406A55B
Track not present in AccurateRip database
Copy OK
Track 5
Filename K:\EAC\05 - Oliver Cheatham - Get Down Saturday Night [1983].wav
Peak level 98.8 %
Extraction speed 3.3 X
Track quality 100.0 %
Test CRC 7489EEAC
Copy CRC 7489EEAC
Track not present in AccurateRip database
Copy OK
Track 6
Filename K:\EAC\06 - Whispers - And The Beat Goes On [1979].wav
Peak level 97.9 %
Extraction speed 2.6 X
Track quality 99.9 %
Test CRC AC92B86F
Copy CRC AC92B86F
Track not present in AccurateRip database
Copy OK
Track 7
Filename K:\EAC\07 - Jackson Sisters - I Believe In Miracles [1972].wav
Peak level 98.8 %
Extraction speed 2.6 X
Track quality 99.9 %
Test CRC 69B703CD
Copy CRC 69B703CD
Track not present in AccurateRip database
Copy OK
Track 8
Filename K:\EAC\08 - Gwen McCrae - All This Love That I'm Giving [1979].wav
Peak level 98.8 %
Extraction speed 3.7 X
Track quality 100.0 %
Test CRC ECBEAB4C
Copy CRC ECBEAB4C
Track not present in AccurateRip database
Copy OK
Track 9
Filename K:\EAC\09 - Aretha Franklin - Rock Steady [1971].wav
Peak level 98.8 %
Extraction speed 3.8 X
Track quality 100.0 %
Test CRC 04726B32
Copy CRC 04726B32
Track not present in AccurateRip database
Copy OK
Track 10
Filename K:\EAC\10 - Chi-Lites - Are You My Woman (Tell Me So) [1970].wav
Peak level 98.8 %
Extraction speed 3.8 X
Track quality 100.0 %
Test CRC 5880DDC4
Copy CRC 5880DDC4
Track not present in AccurateRip database
Copy OK
Track 11
Filename K:\EAC\11 - Peaches & Herb - Shake Your Groove Thing [1978].wav
Peak level 98.8 %
Extraction speed 3.9 X
Track quality 100.0 %
Test CRC 4AF31227
Copy CRC 4AF31227
Track not present in AccurateRip database
Copy OK
Track 12
Filename K:\EAC\12 - Heatwave - Boogie Nights [1976].wav
Peak level 98.8 %
Extraction speed 4.1 X
Track quality 100.0 %
Test CRC 6481A6D2
Copy CRC 6481A6D2
Track not present in AccurateRip database
Copy OK
Track 13
Filename K:\EAC\13 - Diana Ross - Upside Down [1980].wav
Peak level 98.8 %
Extraction speed 4.3 X
Track quality 100.0 %
Test CRC A86F7410
Copy CRC A86F7410
Track not present in AccurateRip database
Copy OK
Track 14
Filename K:\EAC\14 - Odyssey - Going Back To My Roots [1981].wav
Peak level 98.8 %
Extraction speed 4.3 X
Track quality 100.0 %
Test CRC 427110F4
Copy CRC 427110F4
Track not present in AccurateRip database
Copy OK
Track 15
Filename K:\EAC\15 - Shalamar - There It Is [1982].wav
Peak level 98.8 %
Extraction speed 4.7 X
Track quality 100.0 %
Test CRC 1E727A62
Copy CRC 1E727A62
Track not present in AccurateRip database
Copy OK
Track 16
Filename K:\EAC\16 - Yarbrough & Peoples - Don't Stop The Music [1980].wav
Peak level 98.8 %
Extraction speed 3.5 X
Track quality 99.9 %
Test CRC F103EBD9
Copy CRC F103EBD9
Track not present in AccurateRip database
Copy OK
Track 17
Filename K:\EAC\17 - Bobby Thurston - Check Out The Groove [1980].wav
Peak level 98.8 %
Extraction speed 4.7 X
Track quality 100.0 %
Test CRC 63BD84C6
Copy CRC 63BD84C6
Track not present in AccurateRip database
Copy OK
Track 18
Filename K:\EAC\18 - Brass Construction - Movin' [1975].wav
Peak level 98.8 %
Extraction speed 3.7 X
Track quality 99.9 %
Test CRC FA248571
Copy CRC FA248571
Track not present in AccurateRip database
Copy OK
Track 19
Filename K:\EAC\19 - Roy Ayers - Love Will Bring Us Back Together Again [1979].wav
Peak level 98.8 %
Extraction speed 5.2 X
Track quality 100.0 %
Test CRC 6B22E6E4
Copy CRC 6B22E6E4
Track not present in AccurateRip database
Copy OK
Track 20
Filename K:\EAC\20 - Bill Withers - Who Is He (And What Is He To You) [1972].wav
Peak level 98.8 %
Extraction speed 5.0 X
Track quality 100.0 %
Test CRC CC6280E0
Copy CRC CC6280E0
Track not present in AccurateRip database
Copy OK
None of the tracks are present in the AccurateRip database
No errors occurred
End of status report
---- CUETools DB Plugin V2.1.6
[CTDB TOCID: ULeuv9wFOZH3tdHLtMFmDJ6J.vU-] found
Submit result: ULeuv9wFOZH3tdHLtMFmDJ6J.vU- has been confirmed
Track | CTDB Status
1 | (4/4) Accurately ripped
2 | (4/4) Accurately ripped
3 | (4/4) Accurately ripped
4 | (4/4) Accurately ripped
5 | (4/4) Accurately ripped
6 | (4/4) Accurately ripped
7 | (4/4) Accurately ripped
8 | (4/4) Accurately ripped
9 | (4/4) Accurately ripped
10 | (4/4) Accurately ripped
11 | (4/4) Accurately ripped
12 | (4/4) Accurately ripped
13 | (4/4) Accurately ripped
14 | (4/4) Accurately ripped
15 | (4/4) Accurately ripped
16 | (4/4) Accurately ripped
17 | (4/4) Accurately ripped
18 | (4/4) Accurately ripped
19 | (4/4) Accurately ripped
20 | (4/4) Accurately ripped
==== Log checksum E65C0BEC2446D45D1099928CB59D3C06E7E29514D9E80796640A5E064B806D7F ====
 
Содержание индексной карты (.CUE)
REM GENRE Funk
REM DATE 2015
REM DISCID 45116D14
REM COMMENT "ExactAudioCopy v1.1"
PERFORMER "Various Artists"
TITLE "Down Town Funk (Ministry Of Sound) (2015) CD2"
FILE "01 - Michael Jackson - Don't Stop 'Til You Get Enough [1979].wav" WAVE
TRACK 01 AUDIO
TITLE "Don't Stop 'Til You Get Enough [1979]"
PERFORMER "Michael Jackson"
INDEX 01 00:00:00
FILE "02 - Chic - Le Freak [1978].wav" WAVE
TRACK 02 AUDIO
TITLE "Le Freak [1978]"
PERFORMER "Chic"
INDEX 01 00:00:00
FILE "03 - Marvin Gaye - Got To Give It Up [1977].wav" WAVE
TRACK 03 AUDIO
TITLE "Got To Give It Up [1977]"
PERFORMER "Marvin Gaye"
INDEX 01 00:00:00
FILE "04 - George Benson - Give Me The Night [1980].wav" WAVE
TRACK 04 AUDIO
TITLE "Give Me The Night [1980]"
PERFORMER "George Benson"
INDEX 01 00:00:00
FILE "05 - Oliver Cheatham - Get Down Saturday Night [1983].wav" WAVE
TRACK 05 AUDIO
TITLE "Get Down Saturday Night [1983]"
PERFORMER "Oliver Cheatham"
INDEX 01 00:00:00
FILE "06 - Whispers - And The Beat Goes On [1979].wav" WAVE
TRACK 06 AUDIO
TITLE "And The Beat Goes On [1979]"
PERFORMER "Whispers"
INDEX 01 00:00:00
FILE "07 - Jackson Sisters - I Believe In Miracles [1972].wav" WAVE
TRACK 07 AUDIO
TITLE "I Believe In Miracles [1972]"
PERFORMER "Jackson Sisters"
INDEX 01 00:00:00
FILE "08 - Gwen McCrae - All This Love That I'm Giving [1979].wav" WAVE
TRACK 08 AUDIO
TITLE "All This Love That I'm Giving [1979]"
PERFORMER "Gwen McCrae"
INDEX 01 00:00:00
FILE "09 - Aretha Franklin - Rock Steady [1971].wav" WAVE
TRACK 09 AUDIO
TITLE "Rock Steady [1971]"
PERFORMER "Aretha Franklin"
INDEX 01 00:00:00
FILE "10 - Chi-Lites - Are You My Woman (Tell Me So) [1970].wav" WAVE
TRACK 10 AUDIO
TITLE "Are You My Woman (Tell Me So) [1970]"
PERFORMER "Chi-Lites"
INDEX 01 00:00:00
FILE "11 - Peaches & Herb - Shake Your Groove Thing [1978].wav" WAVE
TRACK 11 AUDIO
TITLE "Shake Your Groove Thing [1978]"
PERFORMER "Peaches & Herb"
INDEX 01 00:00:00
FILE "12 - Heatwave - Boogie Nights [1976].wav" WAVE
TRACK 12 AUDIO
TITLE "Boogie Nights [1976]"
PERFORMER "Heatwave"
INDEX 01 00:00:00
FILE "13 - Diana Ross - Upside Down [1980].wav" WAVE
TRACK 13 AUDIO
TITLE "Upside Down [1980]"
PERFORMER "Diana Ross"
INDEX 01 00:00:00
FILE "14 - Odyssey - Going Back To My Roots [1981].wav" WAVE
TRACK 14 AUDIO
TITLE "Going Back To My Roots [1981]"
PERFORMER "Odyssey"
INDEX 01 00:00:00
FILE "15 - Shalamar - There It Is [1982].wav" WAVE
TRACK 15 AUDIO
TITLE "There It Is [1982]"
PERFORMER "Shalamar"
INDEX 01 00:00:00
FILE "16 - Yarbrough & Peoples - Don't Stop The Music [1980].wav" WAVE
TRACK 16 AUDIO
TITLE "Don't Stop The Music [1980]"
PERFORMER "Yarbrough & Peoples"
INDEX 01 00:00:00
FILE "17 - Bobby Thurston - Check Out The Groove [1980].wav" WAVE
TRACK 17 AUDIO
TITLE "Check Out The Groove [1980]"
PERFORMER "Bobby Thurston"
INDEX 01 00:00:00
FILE "18 - Brass Construction - Movin' [1975].wav" WAVE
TRACK 18 AUDIO
TITLE "Movin' [1975]"
PERFORMER "Brass Construction"
INDEX 01 00:00:00
FILE "19 - Roy Ayers - Love Will Bring Us Back Together Again [1979].wav" WAVE
TRACK 19 AUDIO
TITLE "Love Will Bring Us Back Together Again [1979]"
PERFORMER "Roy Ayers"
INDEX 01 00:00:00
FILE "20 - Bill Withers - Who Is He (And What Is He To You) [1972].wav" WAVE
TRACK 20 AUDIO
TITLE "Who Is He (And What Is He To You) [1972]"
PERFORMER "Bill Withers"
INDEX 01 00:00:00
 
Лог проверки качества:
-----------------------
DON'T MODIFY THIS FILE
-----------------------
PERFORMER: auCDtect Task Manager, ver. 1.6.0 RC1 build 1.6.0.1
Copyright (c) 2008-2010 y-soft. All rights reserved
http://y-soft.org
ANALYZER: auCDtect: CD records authenticity detector, version 0.8.2
Copyright (c) 2004 Oleg Berngardt. All rights reserved.
Copyright (c) 2004 Alexander Djourik. All rights reserved.
FILE: 01 - Michael Jackson - Don't Stop 'Til You Get Enough [1979].flac
Size: 30161193 Hash: 985D51E6F248D8A2F87231863AC947E5 Accuracy: -m0
Conclusion: CDDA 100%
Signature: 8D92659188B1A27F15B8F7CDF66ABDC821792765
FILE: 02 - Chic - Le Freak [1978].flac
Size: 27149928 Hash: D173FD69B53434770B44DFC64DAE4B46 Accuracy: -m0
Conclusion: CDDA 100%
Signature: A39FB1271999ED727012CA6F7AFE41BF38383B1D
FILE: 03 - Marvin Gaye - Got To Give It Up [1977].flac
Size: 27838671 Hash: 423F609CA6587592B367F2DAA874FEB9 Accuracy: -m0
Conclusion: CDDA 99%
Signature: F10D6E546DF23663A70528053A5E963BBAEEC358
FILE: 04 - George Benson - Give Me The Night [1980].flac
Size: 24177221 Hash: 97C2FE7230B3111B21BC9BCE604A822A Accuracy: -m0
Conclusion: CDDA 100%
Signature: 92E5C10ED9B671519BD780035A15B64EEF310A6B
FILE: 05 - Oliver Cheatham - Get Down Saturday Night [1983].flac
Size: 27077516 Hash: A665E3265E892C5751DC44C4D3E621A2 Accuracy: -m0
Conclusion: CDDA 100%
Signature: C5EB5A1E8C5DBAD6D76F7B7FE43968FDF8AF47A3
FILE: 06 - Whispers - And The Beat Goes On [1979].flac
Size: 24228911 Hash: EA83A554716235511EBEC732D91FFE81 Accuracy: -m0
Conclusion: CDDA 100%
Signature: FC2C8E54C63B46A28111954514CB3EA7D835813E
FILE: 07 - Jackson Sisters - I Believe In Miracles [1972].flac
Size: 22943811 Hash: 73684A5E5C313D8243D869A49A2DD8A4 Accuracy: -m0
Conclusion: CDDA 100%
Signature: 022C7A021D4C55406743139F21A06AD11BB3EF2C
FILE: 08 - Gwen McCrae - All This Love That I'm Giving [1979].flac
Size: 28228217 Hash: E9E26B54B28EBDA87D8A31589A233353 Accuracy: -m0
Conclusion: CDDA 100%
Signature: 83242496FB0844005169DC6B683D792CC9785F2D
FILE: 09 - Aretha Franklin - Rock Steady [1971].flac
Size: 22380144 Hash: 28699FC05761E67A286DB37CA4D7D107 Accuracy: -m0
Conclusion: CDDA 100%
Signature: DB2AFE04BFFDD1EB0A5A8E9DC688BC49893B51BB
FILE: 10 - Chi-Lites - Are You My Woman (Tell Me So) [1970].flac
Size: 21405109 Hash: 5E4BE8CD7130EF2E9D2E91C587B616F4 Accuracy: -m0
Conclusion: CDDA 100%
Signature: 239C6FBB1CBE0C9FF8E6F85F504CC6B09AA9C6EB
FILE: 11 - Peaches & Herb - Shake Your Groove Thing [1978].flac
Size: 24773756 Hash: A06786400734F939758193833D39D381 Accuracy: -m0
Conclusion: CDDA 100%
Signature: 2612293C89B8937017DC1ACEE0ABE8A68AA23CA4
FILE: 12 - Heatwave - Boogie Nights [1976].flac
Size: 24157858 Hash: 1AB917F1A1A4E27A31A3B41CD72D4E0E Accuracy: -m0
Conclusion: CDDA 100%
Signature: D3DC6703BD2A2200F2013B9F4A5A37973F175B87
FILE: 13 - Diana Ross - Upside Down [1980].flac
Size: 26448357 Hash: 0F0AC4628C31EC2D33B3FFA788BA6003 Accuracy: -m0
Conclusion: CDDA 100%
Signature: E2FFFDAB46484C07D2B4877C387D0D822F9E0E6F
FILE: 14 - Odyssey - Going Back To My Roots [1981].flac
Size: 24593469 Hash: F69FEA9A31006A85DD383D83AF723D20 Accuracy: -m0
Conclusion: CDDA 100%
Signature: 8C95562337D64A99F95AD4DC9F804248344F1074
FILE: 15 - Shalamar - There It Is [1982].flac
Size: 30602315 Hash: BC51549C8F80EB43D9462CD45F76D939 Accuracy: -m0
Conclusion: CDDA 100%
Signature: 55DE0E0B5F22589C501CDED546C981B502FB28F7
FILE: 16 - Yarbrough & Peoples - Don't Stop The Music [1980].flac
Size: 24749357 Hash: CE10D838AC647FC48E79F38A8FE7709A Accuracy: -m0
Conclusion: CDDA 100%
Signature: D135DB011189735673F906B387318F0891E40060
FILE: 17 - Bobby Thurston - Check Out The Groove [1980].flac
Size: 28583193 Hash: 5554D4458C4C58CD0DB75CC4CE014AC2 Accuracy: -m0
Conclusion: CDDA 100%
Signature: F439E7427172576328E14C93EA324A3C930D4622
FILE: 18 - Brass Construction - Movin' [1975].flac
Size: 27084489 Hash: 4ED078E89C2BE4E428160D903AA46DDC Accuracy: -m0
Conclusion: CDDA 100%
Signature: 938486D77ABF08EF1877284C3AB3E934C30D4490
FILE: 19 - Roy Ayers - Love Will Bring Us Back Together Again [1979].flac
Size: 43345313 Hash: 0E4C8401AE911856B7A9BE72AF582DB2 Accuracy: -m0
Conclusion: CDDA 100%
Signature: 543E7DF371C97647AEF1C4DA01BFA99E4EFF31B9
FILE: 20 - Bill Withers - Who Is He (And What Is He To You) [1972].flac
Size: 21460644 Hash: 6A7F416B6C17D87A3129711C254BEA5C Accuracy: -m0
Conclusion: CDDA 100%
Signature: FBE66F2568F7B5766E1C15EBCEC568CE5B98C07E
 
CD 3: (01:18:39)
01 James Taylor Quartet - Theme From Starsky And Hutch [5:54]
02 Bobby Byrd - I Know You Got Soul [3:05]
03 Fred Wesley & The JB's - Blow Your Head [4:44]
04 Ohio Players - Love Rollercoaster [2:53]
05 Lyn Collins - Think (About It) [3:19]
06 Incredible Bongo Band - Apache [4:52]
07 Fatback Band - (Are You Ready) Do The Bus Stop [3:17]
08 Maceo & The Macks - Cross The Track (We Better Go Back) [3:16]
09 Funkadelic - Red Hot Momma [3:19]
10 Herbie Hancock - Chameleon [2:50]
11 Meters - Cissy Strut [3:04]
12 Sly & The Family Stone - Thank You (Fallettin Me Be Mice Elf Again) [4:49]
13 Lakeside - Fantastic Voyage [4:03]
14 Bobby Womack - It's Party Time [4:11]
15 Kiki Gyan - Disco Dancer [3:57]
16 Family Tree - Family Tree [4:39]
17 George Duke - Shine On [3:43]
18 Parliament - Tear The Roof Off The Sucker (Give Up The Funk) [3:45]
19 Zapp - More Bounce To The Ounce [3:58]
20 Bob James - Nautilus [5:01]
 
Лог создания рипа
Exact Audio Copy V1.1 from 23. June 2015
EAC extraction logfile from 21. July 2015, 13:29
Various Artists / Down Town Funk (Ministry Of Sound) (2015) CD3
Used drive : hp DVDRAM GU90N Adapter: 1 ID: 0
Read mode : Secure
Utilize accurate stream : Yes
Defeat audio cache : Yes
Make use of C2 pointers : No
Read offset correction : 102
Overread into Lead-In and Lead-Out : No
Fill up missing offset samples with silence : Yes
Delete leading and trailing silent blocks : No
Null samples used in CRC calculations : Yes
Used interface : Native Win32 interface for Win NT & 2000
Gap handling : Appended to previous track
Used output format : User Defined Encoder
Selected bitrate : 1024 kBit/s
Quality : High
Add ID3 tag : No
Command line compressor : C:\Program Files (x86)\Exact Audio Copy\Flac\flac.exe
Additional command line options : -8 -V -T "ARTIST=%artist%" -T "TITLE=%title%" -T "ALBUM=%albumtitle%" -T "DATE=%year%" -T "TRACKNUMBER=%tracknr%" -T "GENRE=%genre%" -T "PERFORMER=%albuminterpret%" -T "COMPOSER=%composer%" %haslyrics%--tag-from-file=LYRICS="%lyricsfile%"%haslyrics% -T "ALBUMARTIST=%albumartist%" -T "DISCNUMBER=%cdnumber%" -T "TOTALDISCS=%totalcds%" -T "TOTALTRACKS=%numtracks%" -T "COMMENT=%comment%" %source% -o %dest%
TOC of the extracted CD
Track | Start | Length | Start sector | End sector
---------------------------------------------------------
1 | 0:00.00 | 5:53.62 | 0 | 26536
2 | 5:53.62 | 3:05.01 | 26537 | 40412
3 | 8:58.63 | 4:44.18 | 40413 | 61730
4 | 13:43.06 | 2:52.46 | 61731 | 74676
5 | 16:35.52 | 3:19.00 | 74677 | 89601
6 | 19:54.52 | 4:52.10 | 89602 | 111511
7 | 24:46.62 | 3:16.42 | 111512 | 126253
8 | 28:03.29 | 3:16.13 | 126254 | 140966
9 | 31:19.42 | 3:19.10 | 140967 | 155901
10 | 34:38.52 | 2:50.16 | 155902 | 168667
11 | 37:28.68 | 3:04.17 | 168668 | 182484
12 | 40:33.10 | 4:49.06 | 182485 | 204165
13 | 45:22.16 | 4:03.18 | 204166 | 222408
14 | 49:25.34 | 4:11.10 | 222409 | 241243
15 | 53:36.44 | 3:57.20 | 241244 | 259038
16 | 57:33.64 | 4:38.38 | 259039 | 279926
17 | 62:12.27 | 3:43.30 | 279927 | 296681
18 | 65:55.57 | 3:44.43 | 296682 | 313524
19 | 69:40.25 | 3:57.66 | 313525 | 331365
20 | 73:38.16 | 5:01.01 | 331366 | 353941
Track 1
Filename K:\EAC\01 - James Taylor Quartet - Theme From Starsky And Hutch [1988].wav
Pre-gap length 0:00:02.00
Peak level 98.8 %
Extraction speed 2.6 X
Track quality 100.0 %
Test CRC 2CFAC2C4
Copy CRC 2CFAC2C4
Track not present in AccurateRip database
Copy OK
Track 2
Filename K:\EAC\02 - Bobby Byrd - I Know You Got Soul [1971].wav
Peak level 98.8 %
Extraction speed 2.7 X
Track quality 100.0 %
Test CRC 65885A47
Copy CRC 65885A47
Track not present in AccurateRip database
Copy OK
Track 3
Filename K:\EAC\03 - Fred Wesley & The JB's - Blow Your Head [1974].wav
Peak level 98.8 %
Extraction speed 3.1 X
Track quality 100.0 %
Test CRC E9604FB3
Copy CRC E9604FB3
Track not present in AccurateRip database
Copy OK
Track 4
Filename K:\EAC\04 - Ohio Players - Love Rollercoaster [1975].wav
Peak level 98.8 %
Extraction speed 2.3 X
Track quality 99.9 %
Test CRC D4D0CED3
Copy CRC D4D0CED3
Track not present in AccurateRip database
Copy OK
Track 5
Filename K:\EAC\05 - Lyn Collins - Think (About It) [1972].wav
Peak level 98.8 %
Extraction speed 3.2 X
Track quality 100.0 %
Test CRC 34679A07
Copy CRC 34679A07
Track not present in AccurateRip database
Copy OK
Track 6
Filename K:\EAC\06 - Incredible Bongo Band - Apache [1973].wav
Peak level 98.8 %
Extraction speed 2.9 X
Track quality 99.9 %
Test CRC 9532DDBF
Copy CRC 9532DDBF
Track not present in AccurateRip database
Copy OK
Track 7
Filename K:\EAC\07 - Fatback Band - (Are You Ready) Do The Bus Stop [1975].wav
Peak level 98.8 %
Extraction speed 2.7 X
Track quality 99.9 %
Test CRC 7CAA70B0
Copy CRC 7CAA70B0
Track not present in AccurateRip database
Copy OK
Track 8
Filename K:\EAC\08 - Maceo & The Macks - Cross The Track (We Better Go Back) [1975].wav
Peak level 98.8 %
Extraction speed 2.8 X
Track quality 99.9 %
Test CRC 46B40B4F
Copy CRC 46B40B4F
Track not present in AccurateRip database
Copy OK
Track 9
Filename K:\EAC\09 - Funkadelic - Red Hot Momma [1974].wav
Peak level 98.8 %
Extraction speed 3.7 X
Track quality 100.0 %
Test CRC 1CFDBDD0
Copy CRC 1CFDBDD0
Track not present in AccurateRip database
Copy OK
Track 10
Filename K:\EAC\10 - Herbie Hancock - Chameleon [1973].wav
Peak level 98.8 %
Extraction speed 3.7 X
Track quality 100.0 %
Test CRC 8EADDEEB
Copy CRC 8EADDEEB
Track not present in AccurateRip database
Copy OK
Track 11
Filename K:\EAC\11 - Meters - Cissy Strut [1968].wav
Peak level 98.8 %
Extraction speed 2.9 X
Track quality 99.9 %
Test CRC 4C1BEBEA
Copy CRC 4C1BEBEA
Track not present in AccurateRip database
Copy OK
Track 12
Filename K:\EAC\12 - Sly & The Family Stone - Thank You (Fallettin Me Be Mice Elf Again) [1969].wav
Peak level 98.8 %
Extraction speed 4.2 X
Track quality 100.0 %
Test CRC E82B1388
Copy CRC E82B1388
Track not present in AccurateRip database
Copy OK
Track 13
Filename K:\EAC\13 - Lakeside - Fantastic Voyage [1980].wav
Peak level 83.7 %
Extraction speed 4.3 X
Track quality 100.0 %
Test CRC EFBB50FE
Copy CRC EFBB50FE
Track not present in AccurateRip database
Copy OK
Track 14
Filename K:\EAC\14 - Bobby Womack - It's Party Time [1978].wav
Peak level 98.8 %
Extraction speed 4.5 X
Track quality 100.0 %
Test CRC FBEE27C2
Copy CRC FBEE27C2
Track not present in AccurateRip database
Copy OK
Track 15
Filename K:\EAC\15 - Kiki Gyan - Disco Dancer [1979].wav
Peak level 98.8 %
Extraction speed 4.5 X
Track quality 100.0 %
Test CRC 22C62002
Copy CRC 22C62002
Track not present in AccurateRip database
Copy OK
Track 16
Filename K:\EAC\16 - Family Tree - Family Tree [1976].wav
Peak level 98.8 %
Extraction speed 4.7 X
Track quality 100.0 %
Test CRC 3B1CA57C
Copy CRC 3B1CA57C
Track not present in AccurateRip database
Copy OK
Track 17
Filename K:\EAC\17 - George Duke - Shine On [1982].wav
Peak level 98.8 %
Extraction speed 3.7 X
Track quality 99.9 %
Test CRC F5280351
Copy CRC F5280351
Track not present in AccurateRip database
Copy OK
Track 18
Filename K:\EAC\18 - Parliament - Tear The Roof Off The Sucker (Give Up The Funk) [1975].wav
Peak level 98.8 %
Extraction speed 4.9 X
Track quality 100.0 %
Test CRC DCF2B368
Copy CRC DCF2B368
Track not present in AccurateRip database
Copy OK
Track 19
Filename K:\EAC\19 - Zapp - More Bounce To The Ounce [1980].wav
Peak level 98.8 %
Extraction speed 5.0 X
Track quality 100.0 %
Test CRC 636569AA
Copy CRC 636569AA
Track not present in AccurateRip database
Copy OK
Track 20
Filename K:\EAC\20 - Bob James - Nautilus [1974].wav
Peak level 98.8 %
Extraction speed 5.3 X
Track quality 100.0 %
Test CRC 8E6CD0FD
Copy CRC 8E6CD0FD
Track not present in AccurateRip database
Copy OK
None of the tracks are present in the AccurateRip database
No errors occurred
End of status report
---- CUETools DB Plugin V2.1.6
[CTDB TOCID: FD4nQDtHcxPeYpXKB1OfuyFi9.E-] found
Submit result: FD4nQDtHcxPeYpXKB1OfuyFi9.E- has been confirmed
Track | CTDB Status
1 | (2/2) Accurately ripped
2 | (2/2) Accurately ripped
3 | (2/2) Accurately ripped
4 | (2/2) Accurately ripped
5 | (2/2) Accurately ripped
6 | (2/2) Accurately ripped
7 | (2/2) Accurately ripped
8 | (2/2) Accurately ripped
9 | (2/2) Accurately ripped
10 | (2/2) Accurately ripped
11 | (2/2) Accurately ripped
12 | (2/2) Accurately ripped
13 | (2/2) Accurately ripped
14 | (2/2) Accurately ripped
15 | (2/2) Accurately ripped
16 | (2/2) Accurately ripped
17 | (2/2) Accurately ripped
18 | (2/2) Accurately ripped
19 | (2/2) Accurately ripped
20 | (2/2) Accurately ripped
==== Log checksum BD493D51E0311795828C3A7753CD61DDE5EEC392B50E6E51E7422429C1FCE380 ====
 
Содержание индексной карты (.CUE)
REM GENRE Funk
REM DATE 2015
REM DISCID 36126F14
REM COMMENT "ExactAudioCopy v1.1"
PERFORMER "Various Artists"
TITLE "Down Town Funk (Ministry Of Sound) (2015) CD3"
FILE "01 - James Taylor Quartet - Theme From Starsky And Hutch [1988].wav" WAVE
TRACK 01 AUDIO
TITLE "Theme From Starsky And Hutch [1988]"
PERFORMER "James Taylor Quartet"
INDEX 01 00:00:00
FILE "02 - Bobby Byrd - I Know You Got Soul [1971].wav" WAVE
TRACK 02 AUDIO
TITLE "I Know You Got Soul [1971]"
PERFORMER "Bobby Byrd"
INDEX 01 00:00:00
FILE "03 - Fred Wesley & The JB's - Blow Your Head [1974].wav" WAVE
TRACK 03 AUDIO
TITLE "Blow Your Head [1974]"
PERFORMER "Fred Wesley & The JB's"
INDEX 01 00:00:00
FILE "04 - Ohio Players - Love Rollercoaster [1975].wav" WAVE
TRACK 04 AUDIO
TITLE "Love Rollercoaster [1975]"
PERFORMER "Ohio Players"
INDEX 01 00:00:00
FILE "05 - Lyn Collins - Think (About It) [1972].wav" WAVE
TRACK 05 AUDIO
TITLE "Think (About It) [1972]"
PERFORMER "Lyn Collins"
INDEX 01 00:00:00
FILE "06 - Incredible Bongo Band - Apache [1973].wav" WAVE
TRACK 06 AUDIO
TITLE "Apache [1973]"
PERFORMER "Incredible Bongo Band"
INDEX 01 00:00:00
FILE "07 - Fatback Band - (Are You Ready) Do The Bus Stop [1975].wav" WAVE
TRACK 07 AUDIO
TITLE "(Are You Ready) Do The Bus Stop [1975]"
PERFORMER "Fatback Band"
INDEX 01 00:00:00
FILE "08 - Maceo & The Macks - Cross The Track (We Better Go Back) [1975].wav" WAVE
TRACK 08 AUDIO
TITLE "Cross The Track (We Better Go Back) [1975]"
PERFORMER "Maceo & The Macks"
INDEX 01 00:00:00
FILE "09 - Funkadelic - Red Hot Momma [1974].wav" WAVE
TRACK 09 AUDIO
TITLE "Red Hot Momma [1974]"
PERFORMER "Funkadelic"
INDEX 01 00:00:00
FILE "10 - Herbie Hancock - Chameleon [1973].wav" WAVE
TRACK 10 AUDIO
TITLE "Chameleon [1973]"
PERFORMER "Herbie Hancock"
INDEX 01 00:00:00
FILE "11 - Meters - Cissy Strut [1968].wav" WAVE
TRACK 11 AUDIO
TITLE "Cissy Strut [1968]"
PERFORMER "Meters"
INDEX 01 00:00:00
FILE "12 - Sly & The Family Stone - Thank You (Fallettin Me Be Mice Elf Again) [1969].wav" WAVE
TRACK 12 AUDIO
TITLE "Thank You (Fallettin Me Be Mice Elf Again) [1969]"
PERFORMER "Sly & The Family Stone"
INDEX 01 00:00:00
FILE "13 - Lakeside - Fantastic Voyage [1980].wav" WAVE
TRACK 13 AUDIO
TITLE "Fantastic Voyage [1980]"
PERFORMER "Lakeside"
INDEX 01 00:00:00
FILE "14 - Bobby Womack - It's Party Time [1978].wav" WAVE
TRACK 14 AUDIO
TITLE "It's Party Time [1978]"
PERFORMER "Bobby Womack"
INDEX 01 00:00:00
FILE "15 - Kiki Gyan - Disco Dancer [1979].wav" WAVE
TRACK 15 AUDIO
TITLE "Disco Dancer [1979]"
PERFORMER "Kiki Gyan"
INDEX 01 00:00:00
FILE "16 - Family Tree - Family Tree [1976].wav" WAVE
TRACK 16 AUDIO
TITLE "Family Tree [1976]"
PERFORMER "Family Tree"
INDEX 01 00:00:00
FILE "17 - George Duke - Shine On [1982].wav" WAVE
TRACK 17 AUDIO
TITLE "Shine On [1982]"
PERFORMER "George Duke"
INDEX 01 00:00:00
FILE "18 - Parliament - Tear The Roof Off The Sucker (Give Up The Funk) [1975].wav" WAVE
TRACK 18 AUDIO
TITLE "Tear The Roof Off The Sucker (Give Up The Funk) [1975]"
PERFORMER "Parliament"
INDEX 01 00:00:00
FILE "19 - Zapp - More Bounce To The Ounce [1980].wav" WAVE
TRACK 19 AUDIO
TITLE "More Bounce To The Ounce [1980]"
PERFORMER "Zapp"
INDEX 01 00:00:00
FILE "20 - Bob James - Nautilus [1974].wav" WAVE
TRACK 20 AUDIO
TITLE "Nautilus [1974]"
PERFORMER "Bob James"
INDEX 01 00:00:00
 
Лог проверки качества:
-----------------------
DON'T MODIFY THIS FILE
-----------------------
PERFORMER: auCDtect Task Manager, ver. 1.6.0 RC1 build 1.6.0.1
Copyright (c) 2008-2010 y-soft. All rights reserved
http://y-soft.org
ANALYZER: auCDtect: CD records authenticity detector, version 0.8.2
Copyright (c) 2004 Oleg Berngardt. All rights reserved.
Copyright (c) 2004 Alexander Djourik. All rights reserved.
FILE: 01 - James Taylor Quartet - Theme From Starsky And Hutch [1988].flac
Size: 44209276 Hash: 209D437A24FEB4F80F6AE2078A852F85 Accuracy: -m0
Conclusion: CDDA 100%
Signature: E4DDE6A26D515974517F69E7FAA6EB7123995BEE
FILE: 02 - Bobby Byrd - I Know You Got Soul [1971].flac
Size: 21211144 Hash: 2B0D96BA6917D9B9BD93499435C371F2 Accuracy: -m0
Conclusion: CDDA 100%
Signature: C9E3658E769559762FE969A3F1CB0DB02DF2507D
FILE: 03 - Fred Wesley & The JB's - Blow Your Head [1974].flac
Size: 32608379 Hash: F7EFB486C6F2000C8E80DCDC0CF11C5F Accuracy: -m0
Conclusion: CDDA 99%
Signature: 04DFCFF8F334B53580AF9BFBEA4B7EEC78C02585
FILE: 04 - Ohio Players - Love Rollercoaster [1975].flac
Size: 20696431 Hash: 1655CE83E016A5B381E3B6AFE5853EA7 Accuracy: -m0
Conclusion: CDDA 100%
Signature: 70C46F32FA38AFECA38C4CB3E9269B6E7A5BE652
FILE: 05 - Lyn Collins - Think (About It) [1972].flac
Size: 23265337 Hash: A81B7B99594AD2212DB3FB77B7DEADBB Accuracy: -m0
Conclusion: CDDA 100%
Signature: C691F35345817D88AD69F729EFE968A54784E058
FILE: 06 - Incredible Bongo Band - Apache [1973].flac
Size: 33047903 Hash: 0ADFDFCC659019AA82AB4A94B63A94FD Accuracy: -m0
Conclusion: CDDA 100%
Signature: 7A5A2F741761E0895ADF0176B9C5E9EA219EEB4D
FILE: 07 - Fatback Band - (Are You Ready) Do The Bus Stop [1975].flac
Size: 24081649 Hash: 5E6AE1FE52F80DC57A1E4C82D490A6CA Accuracy: -m0
Conclusion: CDDA 100%
Signature: 46C1B7A03D16128E264AC49D7651005F547E3E1D
FILE: 08 - Maceo & The Macks - Cross The Track (We Better Go Back) [1975].flac
Size: 23732726 Hash: B53912E16691CBD50A097A3AAA544948 Accuracy: -m0
Conclusion: CDDA 100%
Signature: ED12885203F2EE934A4D15D022B3F8FC66FE7407
FILE: 09 - Funkadelic - Red Hot Momma [1974].flac
Size: 22298756 Hash: 9B6E5E786FFCE4CC13F48C3CC3864E30 Accuracy: -m0
Conclusion: CDDA 100%
Signature: 3850D645CA2A73FBFC4FA93AEE6585547B47A9D9
FILE: 10 - Herbie Hancock - Chameleon [1973].flac
Size: 18327946 Hash: 256C2BFFD42FD68023FD565B8F000DFB Accuracy: -m0
Conclusion: CDDA 100%
Signature: 54C5E28A154A03FF19B15079B7BFEA79B8AD4A19
FILE: 11 - Meters - Cissy Strut [1968].flac
Size: 21084618 Hash: 41ACD058E7F3442D7570FAAFFD51CD32 Accuracy: -m0
Conclusion: CDDA 100%
Signature: 7EDAC1560F50494E739A05E00868BF2AD4D98F78
FILE: 12 - Sly & The Family Stone - Thank You (Fallettin Me Be Mice Elf Again) [1969].flac
Size: 30667510 Hash: 36946E63C390A837D7CD1097E8C64A84 Accuracy: -m0
Conclusion: CDDA 99%
Signature: E80763E1A96F90AD3B4CE015635203271BB392E6
FILE: 13 - Lakeside - Fantastic Voyage [1980].flac
Size: 29807060 Hash: A56B09A2907AF36E57EB5A141246D0EA Accuracy: -m0
Conclusion: CDDA 100%
Signature: 686882020464A9310960BCDFCFCF1DA3D2796EC7
FILE: 14 - Bobby Womack - It's Party Time [1978].flac
Size: 31983457 Hash: 550018277E71610D7E449DC84AB77BBD Accuracy: -m0
Conclusion: CDDA 100%
Signature: 70CE37C4BD6089386A8A87178193AED9FC0F2F7A
FILE: 15 - Kiki Gyan - Disco Dancer [1979].flac
Size: 28328808 Hash: F3094FECB7A86C3A306348D88258FF03 Accuracy: -m0
Conclusion: CDDA 100%
Signature: 5AB2D120DF22E44503E7F9BB46E0453468697743
FILE: 16 - Family Tree - Family Tree [1976].flac
Size: 27801155 Hash: 5786F8E5EB0A4765425F8214B2AB5718 Accuracy: -m0
Conclusion: CDDA 100%
Signature: F05EA4467089B165345D43D50965184FFB02DCF2
FILE: 17 - George Duke - Shine On [1982].flac
Size: 26960910 Hash: AB23DD4B28F55FB75DC59AD279AFBBC9 Accuracy: -m0
Conclusion: CDDA 100%
Signature: 5230E1C5BA659435421DF56594965ACD5DA9E6DE
FILE: 18 - Parliament - Tear The Roof Off The Sucker (Give Up The Funk) [1975].flac
Size: 25403159 Hash: 18578820E96311B54303094C499D2E18 Accuracy: -m0
Conclusion: MPEG 95%
Signature: E68E13B670D5F652A8A96365A1577885FD5D52D5
FILE: 19 - Zapp - More Bounce To The Ounce [1980].flac
Size: 27342247 Hash: F94DDC468FB89548479FC54780DCE1C7 Accuracy: -m0
Conclusion: CDDA 100%
Signature: BA7E18D70A38EADB7B46FF73C1275D33717D6D3E
FILE: 20 - Bob James - Nautilus [1974].flac
Size: 36844698 Hash: CE5CC1A9A2ACE7F3D7445E13FC243BF6 Accuracy: -m0
Conclusion: CDDA 99%
Signature: F69FC62B1B41074F5298CFFFE4BB6F4B7757BB42
 
Об альбоме (сборнике)
Приватный:
Нет (DHT включён)
Размер:
1.51 Гб (1,616,796,312 байт) » файлов: 70
Участники:
0 раздают, 0 качают (0 участников всего)
Внешние участники:
2 раздают, 1 качают (3 участников всего) [ Обновить ]
No seeders - write a personal message to user M0p94ok. Нет сидеров - пишите личное сообщение пользователю M0p94ok.
08:28
72
Нет комментариев. Ваш будет первым!