Поиск

(Funk, Soul) [CD] VA - Easy Sunday Soul - 2005, FLAC (tracks+.cue), lossless

(Funk, Soul) [CD] VA - Easy Sunday Soul - 2005, FLAC (tracks+.cue), lossless
Треклист:
Easy Sunday Soul
(Compilation, Promo).Жанр: Funk, Soul
Носитель: CD
Страна-производитель диска (релиза): Europe
Год издания: 2005
Издатель (лейбл): News Of The World / Spin Music
Номер по каталогу: SM/NOTW012GB / SM/NOTW012GB
Аудиокодек: FLAC (*.flac)
Тип рипа: tracks+.cue
Битрейт аудио: lossless
Продолжительность: 01:05:51
Источник (релизер): stas64
Наличие сканов в содержимом раздачи: да - 600 dpi .Треклист:
01. Luther Vandross - Never Too Much.
02. Bill Withers - Lovely Day.
03. Three Degrees - When Will I See You Again.
04. Deniece Williams - Free.
05. Aretha Franklin - Who's Zoomin' Who.
06. Dionne Warwick - Heart Breaker.
07. Four Tops - Loco In Acapulco.
08. Jacksons - Can You Feel It.
09. Al Green - Love Is A Beautiful Thing.
10. Gladys Knight & The Pips - Midnight Train To Georgia.
bonus tracks:
11. Amour - I Want To Know You.
12. Big Hank - So Peachy.
13. Further Advice - Midnight Memory.
14. Groove Finder - Highlights Of The Nightlife.
15. Ric Ricardo - Steppin' Time.
.Notes: This CD was given away free with British national newspaper, News Of The World.
 
Booklet

 
Лог создания рипа
Exact Audio Copy V1.0 beta 3 from 29. August 2011
Отчёт EAC об извлечении, выполненном 4. ноября 2015, 8:40
Various / Easy Sunday Soul
Дисковод: DVDRW DRW-6S160P Adapter: 7 ID: 0
Режим чтения : Достоверность
Использование точного потока : Да
Отключение кэша аудио : Да
Использование указателей C2 : Нет
Коррекция смещения при чтении : 6
Способность читать области Lead-in и Lead-out : Нет
Заполнение пропущенных сэмплов тишиной : Да
Удаление блоков с тишиной в начале и конце : Нет
При вычислениях CRC использовались нулевые сэмплы : Да
Интерфейс : Установленный внешний ASPI-интерфейс
Обработка зазоров : Добавлено к предыдущему треку
Выходной формат : Пользовательский кодировщик
Выбранный битрейт : 128 kBit/s
Качество : Высокий
Добавление ID3-тега : Нет
Утилита сжатия : C:\Program Files\Exact Audio Copy\FLAC\FLAC.EXE
Дополнительные параметры : -V -8 -T "Genre=%genre%" -T "Artist=%artist%" -T "Title=%title%" -T "Album=%albumtitle%" -T "Date=%year%" -T "Tracknumber=%tracknr%" -T "Comment=%comment%" %source%
TOC извлечённого CD
Трек | Старт | Длительность | Начальный сектор | Конечный сектор
---------------------------------------------------------------------
1 | 0:00.00 | 3:49.10 | 0 | 17184
2 | 3:49.10 | 4:06.20 | 17185 | 35654
3 | 7:55.30 | 2:56.35 | 35655 | 48889
4 | 10:51.65 | 2:39.43 | 48890 | 60857
5 | 13:31.33 | 4:43.02 | 60858 | 82084
6 | 18:14.35 | 4:17.70 | 82085 | 101429
7 | 22:32.30 | 4:31.38 | 101430 | 121792
8 | 27:03.68 | 3:48.65 | 121793 | 138957
9 | 30:52.58 | 5:28.72 | 138958 | 163629
10 | 36:21.55 | 10:36.40 | 163630 | 211369
11 | 46:58.20 | 4:01.08 | 211370 | 229452
12 | 50:59.28 | 3:14.40 | 229453 | 244042
13 | 54:13.68 | 4:37.40 | 244043 | 264857
14 | 58:51.33 | 4:23.22 | 264858 | 284604
15 | 63:14.55 | 2:36.60 | 284605 | 296364
Трек 1
Имя файла I:\MOI_RAZDACI\VA Easy Sunday Sou\VA_Easy.Sunday.Sou_2005\01. Luther Vandross - Never Too Much.wav
Длина предзазора 0:00:02.00
Пиковый уровень 98.2 %
Скорость извлечения 5.2 X
Качество трека 100.0 %
CRC теста 0E12A378
CRC копии 0E12A378
Точное извлечение (достоверность 9) [3BC66BC7] (AR v2)
Копирование... OK
Трек 2
Имя файла I:\MOI_RAZDACI\VA Easy Sunday Sou\VA_Easy.Sunday.Sou_2005\02. Bill Withers - Lovely Day.wav
Длина предзазора 0:00:01.20
Пиковый уровень 98.4 %
Скорость извлечения 5.7 X
Качество трека 100.0 %
CRC теста E04B97D0
CRC копии E04B97D0
Точное извлечение (достоверность 10) [BE4D081A] (AR v2)
Копирование... OK
Трек 3
Имя файла I:\MOI_RAZDACI\VA Easy Sunday Sou\VA_Easy.Sunday.Sou_2005\03. Three Degrees - When Will I See You Again.wav
Длина предзазора 0:00:01.12
Пиковый уровень 98.4 %
Скорость извлечения 5.9 X
Качество трека 100.0 %
CRC теста 89A587AD
CRC копии 89A587AD
Точное извлечение (достоверность 10) [E9A9A86F] (AR v2)
Копирование... OK
Трек 4
Имя файла I:\MOI_RAZDACI\VA Easy Sunday Sou\VA_Easy.Sunday.Sou_2005\04. Deniece Williams - Free.wav
Длина предзазора 0:00:01.47
Пиковый уровень 99.0 %
Скорость извлечения 6.1 X
Качество трека 100.0 %
CRC теста DBF0F997
CRC копии DBF0F997
Точное извлечение (достоверность 10) [D4B30CE9] (AR v2)
Копирование... OK
Трек 5
Имя файла I:\MOI_RAZDACI\VA Easy Sunday Sou\VA_Easy.Sunday.Sou_2005\05. Aretha Franklin - Who's Zoomin' Who.wav
Длина предзазора 0:00:01.56
Пиковый уровень 93.3 %
Скорость извлечения 7.0 X
Качество трека 100.0 %
CRC теста D290E5CF
CRC копии D290E5CF
Точное извлечение (достоверность 10) [1A1A505F] (AR v2)
Копирование... OK
Трек 6
Имя файла I:\MOI_RAZDACI\VA Easy Sunday Sou\VA_Easy.Sunday.Sou_2005\06. Dionne Warwick - Heart Breaker.wav
Длина предзазора 0:00:01.27
Пиковый уровень 98.4 %
Скорость извлечения 6.3 X
Качество трека 99.9 %
CRC теста F9C9849D
CRC копии F9C9849D
Точное извлечение (достоверность 11) [F6EF46C9] (AR v2)
Копирование... OK
Трек 7
Имя файла I:\MOI_RAZDACI\VA Easy Sunday Sou\VA_Easy.Sunday.Sou_2005\07. Four Tops - Loco In Acapulco.wav
Длина предзазора 0:00:01.24
Пиковый уровень 90.5 %
Скорость извлечения 7.8 X
Качество трека 100.0 %
CRC теста E37CAD3E
CRC копии E37CAD3E
Точное извлечение (достоверность 11) [1A8B8434] (AR v2)
Копирование... OK
Трек 8
Имя файла I:\MOI_RAZDACI\VA Easy Sunday Sou\VA_Easy.Sunday.Sou_2005\08. Jacksons - Can You Feel It.wav
Длина предзазора 0:00:01.02
Пиковый уровень 98.0 %
Скорость извлечения 8.1 X
Качество трека 100.0 %
CRC теста C90B23A3
CRC копии C90B23A3
Точное извлечение (достоверность 10) [9D5C2E54] (AR v2)
Копирование... OK
Трек 9
Имя файла I:\MOI_RAZDACI\VA Easy Sunday Sou\VA_Easy.Sunday.Sou_2005\09. Al Green - Love Is A Beautiful Thing.wav
Длина предзазора 0:00:01.27
Пиковый уровень 98.5 %
Скорость извлечения 8.8 X
Качество трека 100.0 %
CRC теста DAF9B82F
CRC копии DAF9B82F
Точное извлечение (достоверность 11) [40C76C08] (AR v2)
Копирование... OK
Трек 10
Имя файла I:\MOI_RAZDACI\VA Easy Sunday Sou\VA_Easy.Sunday.Sou_2005\10. Gladys Knight & The Pips - Midnight Train To Georgia.wav
Длина предзазора 0:00:01.18
Пиковый уровень 98.3 %
Скорость извлечения 9.9 X
Качество трека 100.0 %
CRC теста B06A6E7C
CRC копии B06A6E7C
Точное извлечение (достоверность 11) [0C27C069] (AR v2)
Копирование... OK
Трек 11
Имя файла I:\MOI_RAZDACI\VA Easy Sunday Sou\VA_Easy.Sunday.Sou_2005\11. Amour - I Want To Know You.wav
Длина предзазора 0:05:57.28
Пиковый уровень 98.4 %
Скорость извлечения 9.5 X
Качество трека 100.0 %
CRC теста 2D19F5B7
CRC копии 2D19F5B7
Точное извлечение (достоверность 6) [2AB0DDC8] (AR v2)
Копирование... OK
Трек 12
Имя файла I:\MOI_RAZDACI\VA Easy Sunday Sou\VA_Easy.Sunday.Sou_2005\12. Big Hank - So Peachy.wav
Длина предзазора 0:00:00.07
Пиковый уровень 98.0 %
Скорость извлечения 7.7 X
Качество трека 99.9 %
CRC теста 27F1B7E4
CRC копии 27F1B7E4
Точное извлечение (достоверность 6) [10670CFC] (AR v2)
Копирование... OK
Трек 13
Имя файла I:\MOI_RAZDACI\VA Easy Sunday Sou\VA_Easy.Sunday.Sou_2005\13. Further Advice - Midnight Memory.wav
Длина предзазора 0:00:02.29
Пиковый уровень 98.4 %
Скорость извлечения 8.7 X
Качество трека 99.9 %
CRC теста 781668DC
CRC копии 781668DC
Точное извлечение (достоверность 6) [B659D192] (AR v2)
Копирование... OK
Трек 14
Имя файла I:\MOI_RAZDACI\VA Easy Sunday Sou\VA_Easy.Sunday.Sou_2005\14. Groove Finder - Highlights Of The Nightlife.wav
Длина предзазора 0:00:01.41
Пиковый уровень 98.0 %
Скорость извлечения 8.9 X
Качество трека 99.9 %
CRC теста 1CC9F77B
CRC копии 1CC9F77B
Точное извлечение (достоверность 6) [044CE5C6] (AR v2)
Копирование... OK
Трек 15
Имя файла I:\MOI_RAZDACI\VA Easy Sunday Sou\VA_Easy.Sunday.Sou_2005\15. Ric Ricardo - Steppin' Time.wav
Длина предзазора 0:00:01.07
Пиковый уровень 98.0 %
Скорость извлечения 9.8 X
Качество трека 100.0 %
CRC теста 0EB8FD20
CRC копии 0EB8FD20
Точное извлечение (достоверность 6) [1D0CCEE4] (AR v2)
Копирование... OK
Все треки извлечены точно
Ошибок не произошло
Конец отчёта
==== Контрольная сумма отчёта E31C2B191AE31FE59D4269884A4C3A4F07B91E27391C1E0898FC381A51AE6A1C ====
 
Содержание индексной карты (.CUE)
REM GENRE Soul
REM DATE 2005
REM DISCID CB0F6F0F
REM COMMENT "ExactAudioCopy v1.0b3"
PERFORMER "Various"
TITLE "Easy Sunday Soul"
FILE "01. Luther Vandross - Never Too Much.wav" WAVE
TRACK 01 AUDIO
TITLE "Never Too Much"
PERFORMER "Luther Vandross"
INDEX 01 00:00:00
TRACK 02 AUDIO
TITLE "Lovely Day"
PERFORMER "Bill Withers"
INDEX 00 03:47:65
FILE "02. Bill Withers - Lovely Day.wav" WAVE
INDEX 01 00:00:00
TRACK 03 AUDIO
TITLE "When Will I See You Again"
PERFORMER "Three Degrees"
INDEX 00 04:05:08
FILE "03. Three Degrees - When Will I See You Again.wav" WAVE
INDEX 01 00:00:00
TRACK 04 AUDIO
TITLE "Free"
PERFORMER "Deniece Williams"
INDEX 00 02:54:63
FILE "04. Deniece Williams - Free.wav" WAVE
INDEX 01 00:00:00
TRACK 05 AUDIO
TITLE "Who's Zoomin' Who"
PERFORMER "Aretha Franklin"
INDEX 00 02:37:62
FILE "05. Aretha Franklin - Who's Zoomin' Who.wav" WAVE
INDEX 01 00:00:00
TRACK 06 AUDIO
TITLE "Heart Breaker"
PERFORMER "Dionne Warwick"
INDEX 00 04:41:50
FILE "06. Dionne Warwick - Heart Breaker.wav" WAVE
INDEX 01 00:00:00
TRACK 07 AUDIO
TITLE "Loco In Acapulco"
PERFORMER "Four Tops"
INDEX 00 04:16:46
FILE "07. Four Tops - Loco In Acapulco.wav" WAVE
INDEX 01 00:00:00
TRACK 08 AUDIO
TITLE "Can You Feel It"
PERFORMER "Jacksons"
INDEX 00 04:30:36
FILE "08. Jacksons - Can You Feel It.wav" WAVE
INDEX 01 00:00:00
TRACK 09 AUDIO
TITLE "Love Is A Beautiful Thing"
PERFORMER "Al Green"
INDEX 00 03:47:38
FILE "09. Al Green - Love Is A Beautiful Thing.wav" WAVE
INDEX 01 00:00:00
TRACK 10 AUDIO
TITLE "Midnight Train To Georgia"
PERFORMER "Gladys Knight & The Pips"
INDEX 00 05:27:54
FILE "10. Gladys Knight & The Pips - Midnight Train To Georgia.wav" WAVE
INDEX 01 00:00:00
TRACK 11 AUDIO
TITLE "I Want To Know You"
PERFORMER "Amour"
INDEX 00 04:39:12
FILE "11. Amour - I Want To Know You.wav" WAVE
INDEX 01 00:00:00
TRACK 12 AUDIO
TITLE "So Peachy"
PERFORMER "Big Hank"
INDEX 00 04:01:01
FILE "12. Big Hank - So Peachy.wav" WAVE
INDEX 01 00:00:00
TRACK 13 AUDIO
TITLE "Midnight Memory"
PERFORMER "Further Advice"
INDEX 00 03:12:11
FILE "13. Further Advice - Midnight Memory.wav" WAVE
INDEX 01 00:00:00
TRACK 14 AUDIO
TITLE "Highlights Of The Nightlife"
PERFORMER "Groove Finder"
INDEX 00 04:35:74
FILE "14. Groove Finder - Highlights Of The Nightlife.wav" WAVE
INDEX 01 00:00:00
TRACK 15 AUDIO
TITLE "Steppin' Time"
PERFORMER "Ric Ricardo"
INDEX 00 04:22:15
FILE "15. Ric Ricardo - Steppin' Time.wav" WAVE
INDEX 01 00:00:00
 
Лог проверки качества
-----------------------
DON'T MODIFY THIS FILE
-----------------------
PERFORMER: auCDtect Task Manager, ver. 1.5.1RC6 build 1.5.1.7
Copyright (c) 2008-2010 y-soft. All rights reserved
http://y-soft.org
ANALYZER: auCDtect: CD records authenticity detector, version 0.8.2
Copyright (c) 2004 Oleg Berngardt. All rights reserved.
Copyright (c) 2004 Alexander Djourik. All rights reserved.
FILE: 15. Ric Ricardo - Steppin' Time.flac
Size: 18541048 Hash: 22D301A44619AB1F9F413286A3E06558 Accuracy: -m0
Conclusion: MPEG 95%
Signature: 5ABC384EDD953463ECE57099954456FA33BB5A63
FILE: 14. Groove Finder - Highlights Of The Nightlife.flac
Size: 29607996 Hash: 0F5048D690A41EC89ABDD367D79FEDA1 Accuracy: -m0
Conclusion: MPEG 95%
Signature: D5FFD7BF0E227EC5135124B02AEBD487779F14F1
FILE: 13. Further Advice - Midnight Memory.flac
Size: 24252353 Hash: 43BDEB18A2B01AB7E3C5E9F3128AB625 Accuracy: -m0
Conclusion: MPEG 95%
Signature: B4BDA4DD023B34FA37A5609E3C0D3DBD3924BA12
FILE: 12. Big Hank - So Peachy.flac
Size: 21182577 Hash: 36A592D90C485B4CFC7D9790567411D3 Accuracy: -m0
Conclusion: MPEG 95%
Signature: C11BFCF5542C4ABD40017376367D8EC704D6F84A
FILE: 11. Amour - I Want To Know You.flac
Size: 23015927 Hash: 17CDE9C3B1DA758D2D260DD1D9CC2A14 Accuracy: -m0
Conclusion: MPEG 95%
Signature: 1E88F3DFD693C24561E9E651F3ACC6FB95880F11
FILE: 10. Gladys Knight & The Pips - Midnight Train To Georgia.flac
Size: 29828474 Hash: 5C14858ADA681469A9E9673DB679F143 Accuracy: -m0
Conclusion: CDDA 100%
Signature: 5D9E48EE98622266D77ADC2B383CA0B9124A9B30
FILE: 09. Al Green - Love Is A Beautiful Thing.flac
Size: 35521597 Hash: D515391E55CE9D43EF61AFE40588E0E8 Accuracy: -m0
Conclusion: CDDA 100%
Signature: E170339AAFB1BACA13BBDFF7224A7316C4D598F2
FILE: 08. Jacksons - Can You Feel It.flac
Size: 29246006 Hash: 508ABE4DA136ECCDA49BD119D5857B99 Accuracy: -m0
Conclusion: CDDA 100%
Signature: 6639109E9CA2B6A3110003936386947B94D259AF
FILE: 07. Four Tops - Loco In Acapulco.flac
Size: 34580384 Hash: 3B83E19080394D8F7203EAB5FDD3FB16 Accuracy: -m0
Conclusion: CDDA 100%
Signature: 081B55AFC7E30FF0D72473A45A11CA92CD12E95C
FILE: 06. Dionne Warwick - Heart Breaker.flac
Size: 29971122 Hash: B2F08C7955709E9A02E02B57C5E80694 Accuracy: -m0
Conclusion: MPEG 100%
Signature: 589DF7F24501962A3816859153F961D94363A957
FILE: 05. Aretha Franklin - Who's Zoomin' Who.flac
Size: 34574272 Hash: DF128C8F921CC3C7CAEE464D6DC8465E Accuracy: -m0
Conclusion: CDDA 100%
Signature: 977F83EE15AF5A539C0D2F7869B4BC6FCBE6F877
FILE: 04. Deniece Williams - Free.flac
Size: 17406507 Hash: 40DBBDC5D187C1B80C0138B43E05EC89 Accuracy: -m0
Conclusion: CDDA 100%
Signature: 42C4B7E928403E5FEB50DF78F9825C9CC10DF94E
FILE: 03. Three Degrees - When Will I See You Again.flac
Size: 18729166 Hash: 424783064804340DF9019AB34A1F51B9 Accuracy: -m0
Conclusion: CDDA 100%
Signature: 8DFE94572A00E7C820604D382501CBE1534276F3
FILE: 02. Bill Withers - Lovely Day.flac
Size: 27366736 Hash: 8B5CD036470055C6D8C8C622EEF475A5 Accuracy: -m0
Conclusion: CDDA 100%
Signature: E7B125D2059101092B9B0BD7279D18C4AAAACD92
FILE: 01. Luther Vandross - Never Too Much.flac
Size: 25869463 Hash: 5754A13BCC347458ED6D0E54804128BF Accuracy: -m0
Conclusion: CDDA 100%
Signature: A3F1FE27F5FB2EE46A75101E83E98958A7C05493
 
Скриншот спектра частот
 
МОИ РАЗДАЧИ - МУЗЫКА: / MY DISTRIBUTION - MUSIC:
 
Rock music:
Прямые кликабельные ссылки на раздачи.
Direct clickable links to hand.



























 
Pop music:
Прямые кликабельные ссылки на раздачи.
Direct clickable links to hand.































 
Other music including Electronic and Soundtracks:
Прямые кликабельные ссылки на раздачи.
Direct clickable links to hand.

























Приватный:
Нет (DHT включён)
Размер:
394.96 Мб (414,149,129 байт) » файлов: 23
Участники:
0 раздают, 0 качают (0 участников всего)
Внешние участники:
3 раздают, 1 качают (4 участников всего) [ Обновить ]
No seeders - write a personal message to user M0p94ok. Нет сидеров - пишите личное сообщение пользователю M0p94ok.
08:35
63
Нет комментариев. Ваш будет первым!