Поиск

(Funk, Soul, R&B) [CD] VA - Alle 40 Goed Motown (2CD) - 2013, FLAC (tracks+.cue), lossless

(Funk, Soul, R&B) [CD] VA - Alle 40 Goed Motown (2CD) - 2013, FLAC (tracks+.cue), lossless
Треклист:
Various - Alle 40 Goed Motown (2CD) Жанр: Funk, Soul, R&B
Носитель: CD
Год издания: 2013
Издатель (лейбл): Universal Music
Номер по каталогу: 534 298-6
Аудиокодек: FLAC (*.flac)
Тип рипа: tracks+.cue
Битрейт аудио: lossless
Источник (релизер): What.cd (StefMir)
Наличие сканов в содержимом раздачи: нет
 
Disc 1 [67:18]

01. Papa Was A Rollin' Stone (The Temptations) (6:54)
02. What's Going On (Marvin Gaye) (3:55)
03. Signed, Sealed, Delivered (I'm Yours) (Stevie Wonder) (2:40)
04. Reach Out, I'll Be There (Four Tops) (3:00)
05. ABC (The Jackson 5) (2:58)
06. Ain't No Mountain High Enough (Marvin Gaye & Tammi Terrell) (2:27)
07. The Tears Of A Clown (Smokey Robinson & The Miracles) (3:00)
08. You Can't Hurry Love (The Supremes) (2:45)
09. I Was Made To Love Her (Stevie Wonder) (2:35)
10. This Old Heart Of Mine (Is Weak For You) (Isley Brothers) (2:50)
11. Do You Love Me (The Contours) (2:54)
12. Let's Get It On (Marvin Gaye) (4:04)
13. My Old Piano (Diana Ross) (3:54)
14. Get Ready (The Temptations) (2:40)
15. Stop! In The Name Of Love (The Supremes) (2:53)
16. For Once In My Life (Stevie Wonder) (2:50)
17. I'll Be There (The Jackson 5) (3:55)
18. Hello (Lionel Richie) (4:10)
19. Never Can Say Goodbye (The Supremes) (3:17)
20. Don't Leave Me This Way (Thelma Houston) (3:36)
 
 
Disc 2 [60:16]

01. I Heard It Through The Grapevine (Marvin Gaye) (3:12)
02. Money (That's What I Want) (Barrett Strong) (2:35)
03. River Deep, Mountain High (The Supremes & Four Tops) (3:17)
04. Please Mr Postman (The Marvelettes) (2:30)
05. It's A Shame (Detroit Spinners) (3:13)
06. I Want You Back (The Jackson 5) (2:57)
07. It Takes Two (Marvin Gaye & Kim Weston) (2:59)
08. Where Did Our Love Go (The Supremes) (2:32)
09. The Tracks Of My Tears (Smokey Robinson & The Miracles) (3:00)
10. Three Times A Lady (Commodores) (3:38)
11. What Becomes Of The Brokenhearted (Jimmy Ruffin) (2:56)
12. I Can't Help Myself (Sugar Pie, Honey Bunch) (Four Tops) (2:42)
13. Keep On Truckin' (Eddie Kendricks) (3:31)
14. Dancing In The Street (Martha Reeves & The Vandellas) (2:39)
15. War (Edwin Starr) (3:23)
16. My Guy (Mary Wells) (2:51)
17. My Girl (The Temptations) (2:51)
18. Baby Love (The Supremes) (2:35)
19. It's Your Thing (1995 Soulsation Version) (The Jackson 5) (3:39)
20. We Can Work It Out (Stevie Wonder) (3:14)
 

 
 
CD 1
 
Лог создания рипа
Exact Audio Copy V1.0 beta 3 from 29. August 2011
EAC extraction logfile from 3. January 2014, 23:42
Various Artists / Alle 40 Goed (Motown) (2013) CD1
Used drive : hp CDDVDW TS-L633N Adapter: 0 ID: 1
Read mode : Secure
Utilize accurate stream : Yes
Defeat audio cache : Yes
Make use of C2 pointers : No
Read offset correction : 6
Overread into Lead-In and Lead-Out : No
Fill up missing offset samples with silence : Yes
Delete leading and trailing silent blocks : No
Null samples used in CRC calculations : Yes
Used interface : Native Win32 interface for Win NT & 2000
Gap handling : Appended to previous track
Used output format : User Defined Encoder
Selected bitrate : 1024 kBit/s
Quality : High
Add ID3 tag : No
Command line compressor : C:\Program Files (x86)\Exact Audio Copy\Flac\flac.exe
Additional command line options : -8 -V -T "ARTIST=%artist%" -T "TITLE=%title%" -T "ALBUM=%albumtitle%" -T "DATE=%year%" -T "TRACKNUMBER=%tracknr%" -T "GENRE=%genre%" -T "PERFORMER=%albuminterpret%" -T "COMPOSER=%composer%" %haslyrics%--tag-from-file=LYRICS="%lyricsfile%"%haslyrics% -T "ALBUMARTIST=%albumartist%" -T "DISCNUMBER=%cdnumber%" -T "TOTALDISCS=%totalcds%" -T "TOTALTRACKS=%numtracks%" -T "COMMENT=%comment%" %source% -o %dest%
TOC of the extracted CD
Track | Start | Length | Start sector | End sector
---------------------------------------------------------
1 | 0:00.00 | 6:53.49 | 0 | 31023
2 | 6:53.49 | 3:54.44 | 31024 | 48617
3 | 10:48.18 | 2:40.35 | 48618 | 60652
4 | 13:28.53 | 3:00.25 | 60653 | 74177
5 | 16:29.03 | 2:58.26 | 74178 | 87553
6 | 19:27.29 | 2:27.20 | 87554 | 98598
7 | 21:54.49 | 3:00.00 | 98599 | 112098
8 | 24:54.49 | 2:45.31 | 112099 | 124504
9 | 27:40.05 | 2:34.72 | 124505 | 136126
10 | 30:15.02 | 2:50.18 | 136127 | 148894
11 | 33:05.20 | 2:53.42 | 148895 | 161911
12 | 35:58.62 | 4:03.50 | 161912 | 180186
13 | 40:02.37 | 3:54.30 | 180187 | 197766
14 | 43:56.67 | 2:39.50 | 197767 | 209741
15 | 46:36.42 | 2:52.65 | 209742 | 222706
16 | 49:29.32 | 2:49.63 | 222707 | 235444
17 | 52:19.20 | 3:55.14 | 235445 | 253083
18 | 56:14.34 | 4:10.36 | 253084 | 271869
19 | 60:24.70 | 3:17.20 | 271870 | 286664
20 | 63:42.15 | 3:36.16 | 286665 | 302880
Track 1
Filename E:\CDRips\01 - Temptations - Papa Was A Rollin' Stone [1972].wav
Pre-gap length 0:00:02.00
Peak level 96.6 %
Extraction speed 2.2 X
Track quality 99.9 %
Test CRC 79296497
Copy CRC 79296497
Track not present in AccurateRip database
Copy OK
Track 2
Filename E:\CDRips\02 - Marvin Gaye - What's Going On [1971].wav
Pre-gap length 0:00:02.00
Peak level 96.6 %
Extraction speed 2.7 X
Track quality 100.0 %
Test CRC E5AECFA9
Copy CRC E5AECFA9
Track not present in AccurateRip database
Copy OK
Track 3
Filename E:\CDRips\03 - Stevie Wonder - Signed Sealed Delivered I'm Yours [1970].wav
Pre-gap length 0:00:02.00
Peak level 83.3 %
Extraction speed 2.7 X
Track quality 100.0 %
Test CRC 9665D972
Copy CRC 9665D972
Track not present in AccurateRip database
Copy OK
Track 4
Filename E:\CDRips\04 - Four Tops - Reach Out I'll Be There [1966].wav
Pre-gap length 0:00:02.00
Peak level 96.6 %
Extraction speed 2.8 X
Track quality 100.0 %
Test CRC 40729322
Copy CRC 40729322
Track not present in AccurateRip database
Copy OK
Track 5
Filename E:\CDRips\05 - Jackson 5 - ABC [1970].wav
Pre-gap length 0:00:02.00
Peak level 96.6 %
Extraction speed 3.0 X
Track quality 100.0 %
Test CRC 79848C9A
Copy CRC 79848C9A
Track not present in AccurateRip database
Copy OK
Track 6
Filename E:\CDRips\06 - Marvin Gaye & Tammi Terrell - Ain't No Mountain High Enough [1967].wav
Pre-gap length 0:00:02.00
Peak level 89.7 %
Extraction speed 2.9 X
Track quality 100.0 %
Test CRC AADB4B48
Copy CRC AADB4B48
Track not present in AccurateRip database
Copy OK
Track 7
Filename E:\CDRips\07 - Smokey Robinson & The Miracles - The Tears Of A Clown [1967].wav
Pre-gap length 0:00:02.00
Peak level 92.6 %
Extraction speed 3.2 X
Track quality 100.0 %
Test CRC 2821BF91
Copy CRC 2821BF91
Track not present in AccurateRip database
Copy OK
Track 8
Filename E:\CDRips\08 - Supremes - You Can't Hurry Love [1966].wav
Pre-gap length 0:00:02.00
Peak level 96.6 %
Extraction speed 3.2 X
Track quality 100.0 %
Test CRC C5D9CAB0
Copy CRC C5D9CAB0
Track not present in AccurateRip database
Copy OK
Track 9
Filename E:\CDRips\09 - Stevie Wonder - I Was Made To Love Her [1967].wav
Pre-gap length 0:00:02.00
Peak level 96.6 %
Extraction speed 3.2 X
Track quality 100.0 %
Test CRC 68575E24
Copy CRC 68575E24
Track not present in AccurateRip database
Copy OK
Track 10
Filename E:\CDRips\10 - Isley Brothers - This Old Heart Of Mine (Is Weak For You) [1966].wav
Pre-gap length 0:00:02.00
Peak level 91.2 %
Extraction speed 3.4 X
Track quality 100.0 %
Test CRC DD1FCF8D
Copy CRC DD1FCF8D
Track not present in AccurateRip database
Copy OK
Track 11
Filename E:\CDRips\11 - Contours - Do You Love Me [1962].wav
Pre-gap length 0:00:02.00
Peak level 79.7 %
Extraction speed 3.5 X
Track quality 100.0 %
Test CRC D171C4E7
Copy CRC D171C4E7
Track not present in AccurateRip database
Copy OK
Track 12
Filename E:\CDRips\12 - Marvin Gaye - Let's Get It On [1973].wav
Pre-gap length 0:00:02.00
Peak level 96.6 %
Extraction speed 3.1 X
Track quality 99.9 %
Test CRC C9BB0325
Copy CRC C9BB0325
Track not present in AccurateRip database
Copy OK
Track 13
Filename E:\CDRips\13 - Diana Ross - My Old Piano [1980].wav
Pre-gap length 0:00:02.00
Peak level 96.6 %
Extraction speed 3.1 X
Track quality 99.9 %
Test CRC E7A727D6
Copy CRC E7A727D6
Track not present in AccurateRip database
Copy OK
Track 14
Filename E:\CDRips\14 - Temptations - Get Ready [1966].wav
Pre-gap length 0:00:02.00
Peak level 72.6 %
Extraction speed 2.8 X
Track quality 99.9 %
Test CRC 8F4DA1BA
Copy CRC 8F4DA1BA
Track not present in AccurateRip database
Copy OK
Track 15
Filename E:\CDRips\15 - Supremes - Stop In The Name Of Love [1965].wav
Pre-gap length 0:00:02.00
Peak level 85.0 %
Extraction speed 3.9 X
Track quality 100.0 %
Test CRC 9181739C
Copy CRC 9181739C
Track not present in AccurateRip database
Copy OK
Track 16
Filename E:\CDRips\16 - Stevie Wonder - For Once In My Life [1968].wav
Pre-gap length 0:00:02.00
Peak level 89.2 %
Extraction speed 3.9 X
Track quality 100.0 %
Test CRC 0FAA7BA3
Copy CRC 0FAA7BA3
Track not present in AccurateRip database
Copy OK
Track 17
Filename E:\CDRips\17 - Jackson 5 - I'll Be There [1970].wav
Pre-gap length 0:00:02.00
Peak level 90.1 %
Extraction speed 4.2 X
Track quality 100.0 %
Test CRC CB0812DC
Copy CRC CB0812DC
Track not present in AccurateRip database
Copy OK
Track 18
Filename E:\CDRips\18 - Lionel Richie - Hello [1983].wav
Pre-gap length 0:00:02.00
Peak level 98.5 %
Extraction speed 4.4 X
Track quality 100.0 %
Test CRC F66033E8
Copy CRC F66033E8
Track not present in AccurateRip database
Copy OK
Track 19
Filename E:\CDRips\19 - Supremes - Never Can Say Goodbye [1971].wav
Pre-gap length 0:00:02.00
Peak level 96.6 %
Extraction speed 4.4 X
Track quality 100.0 %
Test CRC ADF36AE0
Copy CRC ADF36AE0
Track not present in AccurateRip database
Copy OK
Track 20
Filename E:\CDRips\20 - Thelma Houston - Don't Leave Me This Way [1976].wav
Pre-gap length 0:00:02.00
Peak level 96.6 %
Extraction speed 4.5 X
Track quality 100.0 %
Test CRC 168F013C
Copy CRC 168F013C
Track not present in AccurateRip database
Copy OK
None of the tracks are present in the AccurateRip database
No errors occurred
End of status report
---- CUETools DB Plugin V2.1.3
[CTDB TOCID: z1IpsERjaAevhdm8ATiuxZdQhn0-] disk not present in database, Submit result: z1IpsERjaAevhdm8ATiuxZdQhn0- has been uploaded
==== Log checksum 6EF56DEF65D1B13F9DA68BD32E04BF51CBE4C05782FDAE2DE355C13B533F5BFB ====
 
Содержание индексной карты (.CUE)
REM GENRE Soul
REM DATE 2013
REM DISCID 2E0FC614
REM COMMENT "ExactAudioCopy v1.0b3"
CATALOG 0600753429877
PERFORMER "Various"
TITLE "Alle 40 Goed Motown (disc 1)"
FILE "01. The Temptations - Papa Was A Rollin' Stone.flac" WAVE
TRACK 01 AUDIO
TITLE "Papa Was A Rollin' Stone"
PERFORMER "The Temptations"
ISRC USUMG0300060
INDEX 01 00:00:00
TRACK 02 AUDIO
TITLE "What's Going On"
PERFORMER "Marvin Gaye"
ISRC USMO17100041
INDEX 00 06:51:49
FILE "02. Marvin Gaye - What's Going On.flac" WAVE
INDEX 01 00:00:00
TRACK 03 AUDIO
TITLE "Signed, Sealed, Delivered (I'm Yours)"
PERFORMER "Stevie Wonder"
ISRC USMO17082643
INDEX 00 03:52:44
FILE "03. Stevie Wonder - Signed, Sealed, Delivered (I'm Yours).flac" WAVE
INDEX 01 00:00:00
TRACK 04 AUDIO
TITLE "Reach Out, I'll Be There"
PERFORMER "Four Tops"
ISRC USMO10119990
INDEX 00 02:38:35
FILE "04. Four Tops - Reach Out, I'll Be There.flac" WAVE
INDEX 01 00:00:00
TRACK 05 AUDIO
TITLE "ABC"
PERFORMER "The Jackson 5"
ISRC USMO17082628
INDEX 00 02:58:25
FILE "05. The Jackson 5 - ABC.flac" WAVE
INDEX 01 00:00:00
TRACK 06 AUDIO
TITLE "Ain't No Mountain High Enough"
PERFORMER "Marvin Gaye & Tammi Terrell"
ISRC USMO16700486
INDEX 00 02:56:26
FILE "06. Marvin Gaye & Tammi Terrell - Ain't No Mountain High Enough.flac" WAVE
INDEX 01 00:00:00
TRACK 07 AUDIO
TITLE "The Tears Of A Clown"
PERFORMER "Smokey Robinson & The Miracles"
ISRC USMO17000525
INDEX 00 02:25:20
FILE "07. Smokey Robinson & The Miracles - The Tears Of A Clown.flac" WAVE
INDEX 01 00:00:00
TRACK 08 AUDIO
TITLE "You Can't Hurry Love"
PERFORMER "The Supremes"
ISRC USMO16600346
INDEX 00 02:58:00
FILE "08. The Supremes - You Can't Hurry Love.flac" WAVE
INDEX 01 00:00:00
TRACK 09 AUDIO
TITLE "I Was Made To Love Her"
PERFORMER "Stevie Wonder"
ISRC USMO16782628
INDEX 00 02:43:31
FILE "09. Stevie Wonder - I Was Made To Love Her.flac" WAVE
INDEX 01 00:00:00
TRACK 10 AUDIO
TITLE "This Old Heart Of Mine (Is Weak For You)"
PERFORMER "Isley Brothers"
ISRC USMO16600448
INDEX 00 02:32:72
FILE "10. Isley Brothers - This Old Heart Of Mine (Is Weak For You).flac" WAVE
INDEX 01 00:00:00
TRACK 11 AUDIO
TITLE "Do You Love Me"
PERFORMER "The Contours"
ISRC USMO10400227
INDEX 00 02:48:18
FILE "11. The Contours - Do You Love Me.flac" WAVE
INDEX 01 00:00:00
TRACK 12 AUDIO
TITLE "Let's Get It On"
PERFORMER "Marvin Gaye"
ISRC USMO19290019
INDEX 00 02:51:42
FILE "12. Marvin Gaye - Let's Get It On.flac" WAVE
INDEX 01 00:00:00
TRACK 13 AUDIO
TITLE "My Old Piano"
PERFORMER "Diana Ross"
ISRC USMO18090043
INDEX 00 04:01:50
FILE "13. Diana Ross - My Old Piano.flac" WAVE
INDEX 01 00:00:00
TRACK 14 AUDIO
TITLE "Get Ready"
PERFORMER "The Temptations"
ISRC USMO16690004
INDEX 00 03:52:30
FILE "14. The Temptations - Get Ready.flac" WAVE
INDEX 01 00:00:00
TRACK 15 AUDIO
TITLE "Stop! In The Name Of Love"
PERFORMER "The Supremes"
ISRC USUM70845718
INDEX 00 02:37:50
FILE "15. The Supremes - Stop! In The Name Of Love.flac" WAVE
INDEX 01 00:00:00
TRACK 16 AUDIO
TITLE "For Once In My Life"
PERFORMER "Stevie Wonder"
ISRC USMO16800531
INDEX 00 02:50:65
FILE "16. Stevie Wonder - For Once In My Life.flac" WAVE
INDEX 01 00:00:00
TRACK 17 AUDIO
TITLE "I'll Be There"
PERFORMER "The Jackson 5"
ISRC USMO17082635
INDEX 00 02:47:63
FILE "17. The Jackson 5 - I'll Be There.flac" WAVE
INDEX 01 00:00:00
TRACK 18 AUDIO
TITLE "Hello"
PERFORMER "Lionel Richie"
ISRC USMO18390012
INDEX 00 03:53:14
FILE "18. Lionel Richie - Hello.flac" WAVE
INDEX 01 00:00:00
TRACK 19 AUDIO
TITLE "Never Can Say Goodbye"
PERFORMER "The Supremes"
ISRC USMO10200905
INDEX 00 04:08:36
FILE "19. The Supremes - Never Can Say Goodbye.flac" WAVE
INDEX 01 00:00:00
TRACK 20 AUDIO
TITLE "Don't Leave Me This Way"
PERFORMER "Thelma Houston"
ISRC USMO17600547
INDEX 00 03:15:20
FILE "20. Thelma Houston - Don't Leave Me This Way.flac" WAVE
INDEX 01 00:00:00
 
CD 2
 
Лог создания рипа
Exact Audio Copy V1.0 beta 3 from 29. August 2011
EAC extraction logfile from 4. January 2014, 0:27
Various Artists / Alle 40 Goed (Motown) (2013) CD2
Used drive : hp CDDVDW TS-L633N Adapter: 0 ID: 1
Read mode : Secure
Utilize accurate stream : Yes
Defeat audio cache : Yes
Make use of C2 pointers : No
Read offset correction : 6
Overread into Lead-In and Lead-Out : No
Fill up missing offset samples with silence : Yes
Delete leading and trailing silent blocks : No
Null samples used in CRC calculations : Yes
Used interface : Native Win32 interface for Win NT & 2000
Gap handling : Appended to previous track
Used output format : User Defined Encoder
Selected bitrate : 1024 kBit/s
Quality : High
Add ID3 tag : No
Command line compressor : C:\Program Files (x86)\Exact Audio Copy\Flac\flac.exe
Additional command line options : -8 -V -T "ARTIST=%artist%" -T "TITLE=%title%" -T "ALBUM=%albumtitle%" -T "DATE=%year%" -T "TRACKNUMBER=%tracknr%" -T "GENRE=%genre%" -T "PERFORMER=%albuminterpret%" -T "COMPOSER=%composer%" %haslyrics%--tag-from-file=LYRICS="%lyricsfile%"%haslyrics% -T "ALBUMARTIST=%albumartist%" -T "DISCNUMBER=%cdnumber%" -T "TOTALDISCS=%totalcds%" -T "TOTALTRACKS=%numtracks%" -T "COMMENT=%comment%" %source% -o %dest%
TOC of the extracted CD
Track | Start | Length | Start sector | End sector
---------------------------------------------------------
1 | 0:00.00 | 3:12.30 | 0 | 14429
2 | 3:12.30 | 2:35.08 | 14430 | 26062
3 | 5:47.38 | 3:16.60 | 26063 | 40822
4 | 9:04.23 | 2:30.10 | 40823 | 52082
5 | 11:34.33 | 3:12.58 | 52083 | 66540
6 | 14:47.16 | 2:57.10 | 66541 | 79825
7 | 17:44.26 | 2:58.49 | 79826 | 93224
8 | 20:43.00 | 2:32.34 | 93225 | 104658
9 | 23:15.34 | 2:59.44 | 104659 | 118127
10 | 26:15.03 | 3:38.24 | 118128 | 134501
11 | 29:53.27 | 2:56.21 | 134502 | 147722
12 | 32:49.48 | 2:42.05 | 147723 | 159877
13 | 35:31.53 | 3:31.10 | 159878 | 175712
14 | 39:02.63 | 2:39.14 | 175713 | 187651
15 | 41:42.02 | 3:23.06 | 187652 | 202882
16 | 45:05.08 | 2:51.36 | 202883 | 215743
17 | 47:56.44 | 2:50.42 | 215744 | 228535
18 | 50:47.11 | 2:35.18 | 228536 | 240178
19 | 53:22.29 | 3:39.01 | 240179 | 256604
20 | 57:01.30 | 3:14.27 | 256605 | 271181
Track 1
Filename E:\CDRips\01 - Marvin Gaye - I Heard It Through The Grapevine [1968].wav
Pre-gap length 0:00:02.00
Peak level 96.6 %
Extraction speed 2.2 X
Track quality 100.0 %
Test CRC C8579E49
Copy CRC C8579E49
Track not present in AccurateRip database
Copy OK
Track 2
Filename E:\CDRips\02 - Barrett Strong - Money (That's What I Want) [1959].wav
Pre-gap length 0:00:02.00
Peak level 93.4 %
Extraction speed 2.3 X
Track quality 100.0 %
Test CRC AA50C143
Copy CRC AA50C143
Track not present in AccurateRip database
Copy OK
Track 3
Filename E:\CDRips\03 - Supremes & The Four Tops - River Deep-Mountain High [1969].wav
Pre-gap length 0:00:02.00
Peak level 96.6 %
Extraction speed 2.5 X
Track quality 100.0 %
Test CRC A80441CE
Copy CRC A80441CE
Track not present in AccurateRip database
Copy OK
Track 4
Filename E:\CDRips\04 - Marvelettes - Please Mr Postman [1961].wav
Pre-gap length 0:00:02.00
Peak level 90.0 %
Extraction speed 2.6 X
Track quality 100.0 %
Test CRC 0D6A9CCF
Copy CRC 0D6A9CCF
Track not present in AccurateRip database
Copy OK
Track 5
Filename E:\CDRips\05 - Spinners - It's A Shame [1970].wav
Pre-gap length 0:00:02.00
Peak level 96.6 %
Extraction speed 2.8 X
Track quality 100.0 %
Test CRC F2DB9034
Copy CRC F2DB9034
Track not present in AccurateRip database
Copy OK
Track 6
Filename E:\CDRips\06 - Jackson 5 - I Want You Back [1969].wav
Pre-gap length 0:00:02.00
Peak level 89.1 %
Extraction speed 2.9 X
Track quality 100.0 %
Test CRC 24FCA5E4
Copy CRC 24FCA5E4
Track not present in AccurateRip database
Copy OK
Track 7
Filename E:\CDRips\07 - Marvin Gaye & Kim Weston - It Takes Two [1966].wav
Pre-gap length 0:00:02.00
Peak level 96.6 %
Extraction speed 3.0 X
Track quality 100.0 %
Test CRC 7B2046B8
Copy CRC 7B2046B8
Track not present in AccurateRip database
Copy OK
Track 8
Filename E:\CDRips\08 - Supremes - Where Did Our Love Go [1964].wav
Pre-gap length 0:00:02.00
Peak level 91.2 %
Extraction speed 3.1 X
Track quality 100.0 %
Test CRC 35F755C6
Copy CRC 35F755C6
Track not present in AccurateRip database
Copy OK
Track 9
Filename E:\CDRips\09 - Miracles - The Tracks Of My Tears [1965].wav
Pre-gap length 0:00:02.00
Peak level 96.6 %
Extraction speed 2.4 X
Track quality 99.9 %
Test CRC 0D54DAA3
Copy CRC 0D54DAA3
Track not present in AccurateRip database
Copy OK
Track 10
Filename E:\CDRips\10 - Commodores - Three Times A Lady [1978].wav
Pre-gap length 0:00:02.00
Peak level 96.6 %
Extraction speed 3.4 X
Track quality 100.0 %
Test CRC 3A8D3BF9
Copy CRC 3A8D3BF9
Track not present in AccurateRip database
Copy OK
Track 11
Filename E:\CDRips\11 - Jimmy Ruffin - What Becomes Of The Brokenhearted [1966].wav
Pre-gap length 0:00:02.00
Peak level 96.6 %
Extraction speed 2.6 X
Track quality 99.9 %
Test CRC E0A14558
Copy CRC E0A14558
Track not present in AccurateRip database
Copy OK
Track 12
Filename E:\CDRips\12 - Four Tops - I Can't Help Myself (Sugar Pie Honey Bunch) [1965].wav
Pre-gap length 0:00:02.00
Peak level 96.6 %
Extraction speed 3.4 X
Track quality 100.0 %
Test CRC C05B9828
Copy CRC C05B9828
Track not present in AccurateRip database
Copy OK
Track 13
Filename E:\CDRips\13 - Eddie Kendricks - Keep On Truckin' [1973].wav
Pre-gap length 0:00:02.00
Peak level 96.6 %
Extraction speed 2.9 X
Track quality 99.9 %
Test CRC F6B5F91F
Copy CRC F6B5F91F
Track not present in AccurateRip database
Copy OK
Track 14
Filename E:\CDRips\14 - Martha Reeves & The Vandellas - Dancing In The Street [1964].wav
Pre-gap length 0:00:02.00
Peak level 91.2 %
Extraction speed 3.6 X
Track quality 100.0 %
Test CRC 2682216B
Copy CRC 2682216B
Track not present in AccurateRip database
Copy OK
Track 15
Filename E:\CDRips\15 - Edwin Starr - War [1970].wav
Pre-gap length 0:00:02.00
Peak level 96.5 %
Extraction speed 3.8 X
Track quality 100.0 %
Test CRC A15D1C78
Copy CRC A15D1C78
Track not present in AccurateRip database
Copy OK
Track 16
Filename E:\CDRips\16 - Mary Wells - My Guy [1964].wav
Pre-gap length 0:00:02.00
Peak level 96.6 %
Extraction speed 3.8 X
Track quality 100.0 %
Test CRC 9B568F9C
Copy CRC 9B568F9C
Track not present in AccurateRip database
Copy OK
Track 17
Filename E:\CDRips\17 - Temptations - My Girl [1964].wav
Pre-gap length 0:00:02.00
Peak level 96.6 %
Extraction speed 3.9 X
Track quality 100.0 %
Test CRC E31DA3EE
Copy CRC E31DA3EE
Track not present in AccurateRip database
Copy OK
Track 18
Filename E:\CDRips\18 - Supremes - Baby Love [1964].wav
Pre-gap length 0:00:02.00
Peak level 96.6 %
Extraction speed 3.9 X
Track quality 100.0 %
Test CRC 4B994316
Copy CRC 4B994316
Track not present in AccurateRip database
Copy OK
Track 19
Filename E:\CDRips\19 - Jackson 5 - It's Your Thing (1995 Soulsation Version) [1995].wav
Pre-gap length 0:00:02.00
Peak level 92.4 %
Extraction speed 4.2 X
Track quality 100.0 %
Test CRC 43AE8F1B
Copy CRC 43AE8F1B
Track not present in AccurateRip database
Copy OK
Track 20
Filename E:\CDRips\20 - Stevie Wonder - We Can Work It Out [1970].wav
Pre-gap length 0:00:02.00
Peak level 96.6 %
Extraction speed 4.2 X
Track quality 100.0 %
Test CRC 995C7BD8
Copy CRC 995C7BD8
Track not present in AccurateRip database
Copy OK
None of the tracks are present in the AccurateRip database
No errors occurred
End of status report
---- CUETools DB Plugin V2.1.3
[CTDB TOCID: sv0QCLEaSRF.4xgHNnT7QAq2CGw-] disk not present in database, Submit result: sv0QCLEaSRF.4xgHNnT7QAq2CGw- has been uploaded
==== Log checksum B0221DC698F5EBB920D4D68AF7832216AC3208EE04CFF683B6C4068DA16ECB42 ====
 
Содержание индексной карты (.CUE)
REM GENRE Soul
REM DATE 2013
REM DISCID 360E1F14
REM COMMENT "ExactAudioCopy v1.0b3"
CATALOG 0600753429884
PERFORMER "Various"
TITLE "Alle 40 Goed Motown (disc 2)"
FILE "01. Marvin Gaye - I Heard It Through The Grapevine.flac" WAVE
TRACK 01 AUDIO
TITLE "I Heard It Through The Grapevine"
PERFORMER "Marvin Gaye"
ISRC USMO16884718
INDEX 01 00:00:00
TRACK 02 AUDIO
TITLE "Money (That's What I Want)"
PERFORMER "Barrett Strong"
ISRC USMO10400229
INDEX 00 03:10:30
FILE "02. Barrett Strong - Money (That's What I Want).flac" WAVE
INDEX 01 00:00:00
TRACK 03 AUDIO
TITLE "River Deep, Mountain High"
PERFORMER "The Supremes & Four Tops"
ISRC USMO10000512
INDEX 00 02:33:08
FILE "03. The Supremes & Four Tops - River Deep, Mountain High.flac" WAVE
INDEX 01 00:00:00
TRACK 04 AUDIO
TITLE "Please Mr Postman"
PERFORMER "The Marvelettes"
ISRC USMO16100266
INDEX 00 03:14:60
FILE "04. The Marvelettes - Please Mr Postman.flac" WAVE
INDEX 01 00:00:00
TRACK 05 AUDIO
TITLE "It's A Shame"
PERFORMER "Detroit Spinners"
ISRC USMO17084703
INDEX 00 02:28:10
FILE "05. Detroit Spinners - It's A Shame.flac" WAVE
INDEX 01 00:00:00
TRACK 06 AUDIO
TITLE "I Want You Back"
PERFORMER "The Jackson 5"
ISRC USMO19400306
INDEX 00 03:10:58
FILE "06. The Jackson 5 - I Want You Back.flac" WAVE
INDEX 01 00:00:00
TRACK 07 AUDIO
TITLE "It Takes Two"
PERFORMER "Marvin Gaye & Kim Weston"
ISRC USMO19582687
INDEX 00 02:55:10
FILE "07. Marvin Gaye & Kim Weston - It Takes Two.flac" WAVE
INDEX 01 00:00:00
TRACK 08 AUDIO
TITLE "Where Did Our Love Go"
PERFORMER "The Supremes"
ISRC USMO10400291
INDEX 00 02:56:49
FILE "08. The Supremes - Where Did Our Love Go.flac" WAVE
INDEX 01 00:00:00
TRACK 09 AUDIO
TITLE "The Tracks Of My Tears"
PERFORMER "Smokey Robinson & The Miracles"
ISRC USMO16572026
INDEX 00 02:30:34
FILE "09. Smokey Robinson & The Miracles - The Tracks Of My Tears.flac" WAVE
INDEX 01 00:00:00
TRACK 10 AUDIO
TITLE "Three Times A Lady"
PERFORMER "Commodores"
ISRC USMO17800521
INDEX 00 02:57:44
FILE "10. Commodores - Three Times A Lady.flac" WAVE
INDEX 01 00:00:00
TRACK 11 AUDIO
TITLE "What Becomes Of The Brokenhearted"
PERFORMER "Jimmy Ruffin"
ISRC USMO10400416
INDEX 00 03:36:24
FILE "11. Jimmy Ruffin - What Becomes Of The Brokenhearted.flac" WAVE
INDEX 01 00:00:00
TRACK 12 AUDIO
TITLE "I Can't Help Myself (Sugar Pie, Honey Bunch)"
PERFORMER "Four Tops"
ISRC USMO16582593
INDEX 00 02:54:21
FILE "12. Four Tops - I Can't Help Myself (Sugar Pie, Honey Bunch).flac" WAVE
INDEX 01 00:00:00
TRACK 13 AUDIO
TITLE "Keep On Truckin'"
PERFORMER "Eddie Kendricks"
ISRC USMO17300451
INDEX 00 02:40:05
FILE "13. Eddie Kendricks - Keep On Truckin'.flac" WAVE
INDEX 01 00:00:00
TRACK 14 AUDIO
TITLE "Dancing In The Street"
PERFORMER "Martha Reeves & The Vandellas"
ISRC USMO16400446
INDEX 00 03:29:10
FILE "14. Martha Reeves & The Vandellas - Dancing In The Street.flac" WAVE
INDEX 01 00:00:00
TRACK 15 AUDIO
TITLE "War"
PERFORMER "Edwin Starr"
ISRC USMO17000050
INDEX 00 02:37:14
FILE "15. Edwin Starr - War.flac" WAVE
INDEX 01 00:00:00
TRACK 16 AUDIO
TITLE "My Guy"
PERFORMER "Mary Wells"
ISRC USMO16400486
INDEX 00 03:21:06
FILE "16. Mary Wells - My Guy.flac" WAVE
INDEX 01 00:00:00
TRACK 17 AUDIO
TITLE "My Girl"
PERFORMER "The Temptations"
ISRC USMO16490001
INDEX 00 02:49:36
FILE "17. The Temptations - My Girl.flac" WAVE
INDEX 01 00:00:00
TRACK 18 AUDIO
TITLE "Baby Love"
PERFORMER "The Supremes"
ISRC USMO10400273
INDEX 00 02:48:42
FILE "18. The Supremes - Baby Love.flac" WAVE
INDEX 01 00:00:00
TRACK 19 AUDIO
TITLE "It's Your Thing (1995 Soulsation Version)"
PERFORMER "The Jackson 5"
ISRC USMO19582629
INDEX 00 02:33:18
FILE "19. The Jackson 5 - It's Your Thing (1995 Soulsation Version).flac" WAVE
INDEX 01 00:00:00
TRACK 20 AUDIO
TITLE "We Can Work It Out"
PERFORMER "Stevie Wonder"
ISRC USMO17000475
INDEX 00 03:37:01
FILE "20. Stevie Wonder - We Can Work It Out.flac" WAVE
INDEX 01 00:00:00
Приватный:
Нет (DHT включён)
Размер:
811.57 Мб (850,988,916 байт) » файлов: 53
Участники:
0 раздают, 0 качают (0 участников всего)
Внешние участники:
1 раздают, 0 качают (1 участников всего) [ Обновить ]
No seeders - write a personal message to user M0p94ok. Нет сидеров - пишите личное сообщение пользователю M0p94ok.
07:59
224
Нет комментариев. Ваш будет первым!