Поиск

(Funk, Soul) [CD] The Manhattans - Black Tie (1981) - 2014, FLAC (tracks+.cue), lossless

(Funk, Soul) [CD] The Manhattans - Black Tie (1981) - 2014, FLAC (tracks+.cue), lossless
Треклист:
The Manhattans - Black Tie (1981)
Жанр: Funk, Soul
Носитель: CD
Год издания: 2014
Издатель (лейбл): Funkytowngrooves
Номер по каталогу: FTG-395
Аудиокодек: FLAC (*.flac)
Тип рипа: tracks+.cue
Битрейт аудио: lossless
Продолжительность: 64:03
Rip by JET 1
Наличие сканов в содержимом раздачи: да
Треклист:
01. Just One Moment Away (4:31)
02. You Stand Out (4:13)
03. Let Your Love Come Down (4:45)
04. Honey, Honey (3:48)
05. When You See Me Laughing (3:40)
06. I Wanta Thank You (3:53)
07. Deep Water (3:38)
08. Just Can't Seem To Get Next To You (3:36)
09. I Was Made For You (4:13)
10. When I Leave Tomorrow (4:36)
11. Just One Moment Away (Single Version) (3:24)
12. Let Your Love Come Down (12' Promo Version) (4:28)
13. Let Your Love Come Down (Single Version) (3:26)
14. Do You Really Mean Goodbye? (Single Version) (3:52)
15. Rendezvous (Single Version) (4:20)
16. I Wanta Thank You (Single Version) (3:42)
 
 
Лог создания рипа
Exact Audio Copy V1.0 beta 3 from 29. August 2011
EAC extraction logfile from 17. April 2015, 17:09
The Manhattans / Black Tie
Used drive : GENERIC CDRCB05 Adapter: 4 ID: 0
Read mode : Secure
Utilize accurate stream : Yes
Defeat audio cache : Yes
Make use of C2 pointers : No
Read offset correction : 102
Overread into Lead-In and Lead-Out : No
Fill up missing offset samples with silence : Yes
Delete leading and trailing silent blocks : No
Null samples used in CRC calculations : Yes
Used interface : Native Win32 interface for Win NT & 2000
Gap handling : Appended to previous track
Used output format : User Defined Encoder
Selected bitrate : 1024 kBit/s
Quality : High
Add ID3 tag : No
Command line compressor : C:\Program Files\FLAC\flac.exe
Additional command line options : -8 -V -T "ARTIST=%artist%" -T "TITLE=%title%" -T "ALBUM=%albumtitle%" -T "DATE=%year%" -T "TRACKNUMBER=%tracknr%" -T "GENRE=%genre%" -T "PERFORMER=%albuminterpret%" -T "COMPOSER=%composer%" %haslyrics%--tag-from-file=LYRICS="%lyricsfile%"%haslyrics% -T "ALBUMARTIST=%albumartist%" -T "DISCNUMBER=%cdnumber%" -T "TOTALDISCS=%totalcds%" -T "TOTALTRACKS=%numtracks%" -T "COMMENT=%comment%" %source% -o %dest%
TOC of the extracted CD
Track | Start | Length | Start sector | End sector
---------------------------------------------------------
1 | 0:00.00 | 4:30.70 | 0 | 20319
2 | 4:30.70 | 4:12.74 | 20320 | 39293
3 | 8:43.69 | 4:45.11 | 39294 | 60679
4 | 13:29.05 | 3:47.58 | 60680 | 77762
5 | 17:16.63 | 3:40.15 | 77763 | 94277
6 | 20:57.03 | 3:52.70 | 94278 | 111747
7 | 24:49.73 | 3:37.38 | 111748 | 128060
8 | 28:27.36 | 3:35.46 | 128061 | 144231
9 | 32:03.07 | 4:12.71 | 144232 | 163202
10 | 36:16.03 | 4:35.60 | 163203 | 183887
11 | 40:51.63 | 3:24.28 | 183888 | 199215
12 | 44:16.16 | 4:28.15 | 199216 | 219330
13 | 48:44.31 | 3:25.51 | 219331 | 234756
14 | 52:10.07 | 3:52.18 | 234757 | 252174
15 | 56:02.25 | 4:19.38 | 252175 | 271637
16 | 60:21.63 | 3:41.44 | 271638 | 288256
Track 1
Filename H:\0\..................00\post\The Manhattans - Black Tie (1981) [2014 FTG]\01 - Just One Moment Away.wav
Pre-gap length 0:00:02.00
Peak level 100.0 %
Extraction speed 1.3 X
Track quality 99.9 %
Test CRC 40A2F695
Copy CRC 40A2F695
Accurately ripped (confidence 3) [E8E826D0] (AR v2)
Copy OK
Track 2
Filename H:\0\..................00\post\The Manhattans - Black Tie (1981) [2014 FTG]\02 - You Stand Out.wav
Peak level 100.0 %
Extraction speed 1.5 X
Track quality 99.9 %
Test CRC 15AB0C4E
Copy CRC 15AB0C4E
Accurately ripped (confidence 3) [32731EE7] (AR v2)
Copy OK
Track 3
Filename H:\0\..................00\post\The Manhattans - Black Tie (1981) [2014 FTG]\03 - Let Your Love Come Down.wav
Peak level 100.0 %
Extraction speed 1.8 X
Track quality 100.0 %
Test CRC 9BA26DF2
Copy CRC 9BA26DF2
Accurately ripped (confidence 3) [A5386C7D] (AR v2)
Copy OK
Track 4
Filename H:\0\..................00\post\The Manhattans - Black Tie (1981) [2014 FTG]\04 - Honey, Honey.wav
Peak level 100.0 %
Extraction speed 1.9 X
Track quality 100.0 %
Test CRC 7B6B822B
Copy CRC 7B6B822B
Accurately ripped (confidence 3) [056E3DD6] (AR v2)
Copy OK
Track 5
Filename H:\0\..................00\post\The Manhattans - Black Tie (1981) [2014 FTG]\05 - When You See Me Laughing.wav
Peak level 100.0 %
Extraction speed 2.0 X
Track quality 100.0 %
Test CRC 5D2C18F9
Copy CRC 5D2C18F9
Accurately ripped (confidence 3) [83A49F53] (AR v2)
Copy OK
Track 6
Filename H:\0\..................00\post\The Manhattans - Black Tie (1981) [2014 FTG]\06 - I Wanta Thank You.wav
Peak level 100.0 %
Extraction speed 2.1 X
Track quality 100.0 %
Test CRC E43F042F
Copy CRC E43F042F
Accurately ripped (confidence 3) [942D97C0] (AR v2)
Copy OK
Track 7
Filename H:\0\..................00\post\The Manhattans - Black Tie (1981) [2014 FTG]\07 - Deep Water.wav
Peak level 100.0 %
Extraction speed 2.2 X
Track quality 100.0 %
Test CRC 94DEFEDB
Copy CRC 94DEFEDB
Accurately ripped (confidence 3) [CD4CD414] (AR v2)
Copy OK
Track 8
Filename H:\0\..................00\post\The Manhattans - Black Tie (1981) [2014 FTG]\08 - Just Can't Seem To Get Next To You.wav
Peak level 99.0 %
Extraction speed 2.3 X
Track quality 100.0 %
Test CRC 95384251
Copy CRC 95384251
Accurately ripped (confidence 3) [5E74C95F] (AR v2)
Copy OK
Track 9
Filename H:\0\..................00\post\The Manhattans - Black Tie (1981) [2014 FTG]\09 - I Was Made For You.wav
Peak level 99.0 %
Extraction speed 2.2 X
Track quality 99.9 %
Test CRC 0B980141
Copy CRC 0B980141
Accurately ripped (confidence 3) [FBA53B0C] (AR v2)
Copy OK
Track 10
Filename H:\0\..................00\post\The Manhattans - Black Tie (1981) [2014 FTG]\10 - When I Leave Tomorrow.wav
Peak level 100.0 %
Extraction speed 2.6 X
Track quality 100.0 %
Test CRC D40EED7A
Copy CRC D40EED7A
Accurately ripped (confidence 3) [1F4517EF] (AR v2)
Copy OK
Track 11
Filename H:\0\..................00\post\The Manhattans - Black Tie (1981) [2014 FTG]\11 - Just One Moment Away (Single Version).wav
Peak level 100.0 %
Extraction speed 2.5 X
Track quality 100.0 %
Test CRC 4E49FFBE
Copy CRC 4E49FFBE
Accurately ripped (confidence 3) [C0EAE970] (AR v2)
Copy OK
Track 12
Filename H:\0\..................00\post\The Manhattans - Black Tie (1981) [2014 FTG]\12 - Let Your Love Come Down (12'' Promo Version).wav
Peak level 98.7 %
Extraction speed 2.7 X
Track quality 100.0 %
Test CRC 2C266F67
Copy CRC 2C266F67
Accurately ripped (confidence 3) [7217A895] (AR v2)
Copy OK
Track 13
Filename H:\0\..................00\post\The Manhattans - Black Tie (1981) [2014 FTG]\13 - Let Your Love Come Down (Single Version).wav
Peak level 99.4 %
Extraction speed 2.7 X
Track quality 100.0 %
Test CRC 5C8F466E
Copy CRC 5C8F466E
Accurately ripped (confidence 3) [DAD890A1] (AR v2)
Copy OK
Track 14
Filename H:\0\..................00\post\The Manhattans - Black Tie (1981) [2014 FTG]\14 - Do You Really Mean Goodbye (Single Version).wav
Peak level 100.0 %
Extraction speed 2.8 X
Track quality 100.0 %
Test CRC 9DA3F5DB
Copy CRC 9DA3F5DB
Accurately ripped (confidence 3) [6A1C06F0] (AR v2)
Copy OK
Track 15
Filename H:\0\..................00\post\The Manhattans - Black Tie (1981) [2014 FTG]\15 - Rendezvous (Single Version).wav
Peak level 100.0 %
Extraction speed 2.9 X
Track quality 100.0 %
Test CRC 7BC9AAD9
Copy CRC 7BC9AAD9
Accurately ripped (confidence 3) [A6CD6CF3] (AR v2)
Copy OK
Track 16
Filename H:\0\..................00\post\The Manhattans - Black Tie (1981) [2014 FTG]\16 - I Wanta Thank You (Single Version).wav
Peak level 100.0 %
Extraction speed 2.9 X
Track quality 100.0 %
Test CRC 8DFF6AC3
Copy CRC 8DFF6AC3
Accurately ripped (confidence 3) [40178A91] (AR v2)
Copy OK
All tracks accurately ripped
No errors occurred
End of status report
==== Log checksum FD76F70797A9C95031929C94B3E922987186077594AFBC4BDE991DC2EE86A594 ====
 
Содержание индексной карты (.CUE)
REM GENRE Soul
REM DATE 1981
REM DISCID E00F0310
REM COMMENT "ExactAudioCopy v1.0b3"
PERFORMER "The Manhattans"
TITLE "Black Tie"
FILE "01 - Just One Moment Away.wav" WAVE
TRACK 01 AUDIO
TITLE "Just One Moment Away"
PERFORMER "The Manhattans"
INDEX 01 00:00:00
FILE "02 - You Stand Out.wav" WAVE
TRACK 02 AUDIO
TITLE "You Stand Out"
PERFORMER "The Manhattans"
INDEX 01 00:00:00
FILE "03 - Let Your Love Come Down.wav" WAVE
TRACK 03 AUDIO
TITLE "Let Your Love Come Down"
PERFORMER "The Manhattans"
INDEX 01 00:00:00
FILE "04 - Honey, Honey.wav" WAVE
TRACK 04 AUDIO
TITLE "Honey, Honey"
PERFORMER "The Manhattans"
INDEX 01 00:00:00
FILE "05 - When You See Me Laughing.wav" WAVE
TRACK 05 AUDIO
TITLE "When You See Me Laughing"
PERFORMER "The Manhattans"
INDEX 01 00:00:00
FILE "06 - I Wanta Thank You.wav" WAVE
TRACK 06 AUDIO
TITLE "I Wanta Thank You"
PERFORMER "The Manhattans"
INDEX 01 00:00:00
FILE "07 - Deep Water.wav" WAVE
TRACK 07 AUDIO
TITLE "Deep Water"
PERFORMER "The Manhattans"
INDEX 01 00:00:00
FILE "08 - Just Can't Seem To Get Next To You.wav" WAVE
TRACK 08 AUDIO
TITLE "Just Can't Seem To Get Next To You"
PERFORMER "The Manhattans"
INDEX 01 00:00:00
FILE "09 - I Was Made For You.wav" WAVE
TRACK 09 AUDIO
TITLE "I Was Made For You"
PERFORMER "The Manhattans"
INDEX 01 00:00:00
FILE "10 - When I Leave Tomorrow.wav" WAVE
TRACK 10 AUDIO
TITLE "When I Leave Tomorrow"
PERFORMER "The Manhattans"
INDEX 01 00:00:00
FILE "11 - Just One Moment Away (Single Version).wav" WAVE
TRACK 11 AUDIO
TITLE "Just One Moment Away (Single Version)"
PERFORMER "The Manhattans"
INDEX 01 00:00:00
FILE "12 - Let Your Love Come Down (12'' Promo Version).wav" WAVE
TRACK 12 AUDIO
TITLE "Let Your Love Come Down (12' Promo Version)"
PERFORMER "The Manhattans"
INDEX 01 00:00:00
FILE "13 - Let Your Love Come Down (Single Version).wav" WAVE
TRACK 13 AUDIO
TITLE "Let Your Love Come Down (Single Version)"
PERFORMER "The Manhattans"
INDEX 01 00:00:00
FILE "14 - Do You Really Mean Goodbye (Single Version).wav" WAVE
TRACK 14 AUDIO
TITLE "Do You Really Mean Goodbye? (Single Version)"
PERFORMER "The Manhattans"
INDEX 01 00:00:00
FILE "15 - Rendezvous (Single Version).wav" WAVE
TRACK 15 AUDIO
TITLE "Rendezvous (Single Version)"
PERFORMER "The Manhattans"
INDEX 01 00:00:00
FILE "16 - I Wanta Thank You (Single Version).wav" WAVE
TRACK 16 AUDIO
TITLE "I Wanta Thank You (Single Version)"
PERFORMER "The Manhattans"
INDEX 01 00:00:00
Приватный:
Нет (DHT включён)
Размер:
565.13 Мб (592,577,128 байт) » файлов: 28
Участники:
0 раздают, 0 качают (0 участников всего)
Внешние участники:
1 раздают, 0 качают (1 участников всего) [ Обновить ]
Есть вопросы - пишите личное сообщение пользователю M0p94ok.
06:14
92
Нет комментариев. Ваш будет первым!