Поиск

(Funk, Soul, R&B) [CD] The Isley Brothers - Go For Your Guns (1977) - 2011, FLAC (tracks+.cue), lossless

(Funk, Soul, R&B) [CD] The Isley Brothers - Go For Your Guns (1977) - 2011, FLAC (tracks+.cue), lossless
Треклист:
The Isley Brothers - Go For Your Guns (1977)
Жанр: Funk, Soul, R&B
Носитель: CD
Год издания: 2011
Издатель (лейбл): Big Break Records
Номер по каталогу: CDBBR 0086
Аудиокодек: FLAC (*.flac)
Тип рипа: tracks+.cue
Битрейт аудио: lossless
Продолжительность: 47:17
Rip by JET 1
Наличие сканов в содержимом раздачи: да
Треклист:
01. The Pride (Parts 1 & 2) (5:34)
02. Footsteps in the Dark (Parts 1 & 2) (5:07)
03. Tell Me When You Need It Again (5:03)
04. Climbin' Up the Ladder (Parts 1 & 2) (6:39)
05. Voyage to Atlantis (4:33)
06. Livin' in the Life (4:13)
07. Go for Your Guns (2:16)
08. Voyage to Atlantis (Alternate Version] (6:34)
09. The Pride (Part 1) (Single Version) (3:25)
10. Voyage to Atlantis (Single Version) (3:54)
 
 
Лог создания рипа
Exact Audio Copy V1.0 beta 3 from 29. August 2011
EAC extraction logfile from 7. May 2015, 22:11
The Isley Brothers / Go For Your Guns
Used drive : ATAPI DVD A DH16A6L-C Adapter: 2 ID: 0
Read mode : Secure
Utilize accurate stream : Yes
Defeat audio cache : Yes
Make use of C2 pointers : No
Read offset correction : 6
Overread into Lead-In and Lead-Out : No
Fill up missing offset samples with silence : Yes
Delete leading and trailing silent blocks : No
Null samples used in CRC calculations : Yes
Used interface : Native Win32 interface for Win NT & 2000
Gap handling : Appended to previous track
Used output format : User Defined Encoder
Selected bitrate : 1024 kBit/s
Quality : High
Add ID3 tag : No
Command line compressor : C:\Program Files\FLAC\flac.exe
Additional command line options : -8 -V -T "ARTIST=%artist%" -T "TITLE=%title%" -T "ALBUM=%albumtitle%" -T "DATE=%year%" -T "TRACKNUMBER=%tracknr%" -T "GENRE=%genre%" -T "PERFORMER=%albuminterpret%" -T "COMPOSER=%composer%" %haslyrics%--tag-from-file=LYRICS="%lyricsfile%"%haslyrics% -T "ALBUMARTIST=%albumartist%" -T "DISCNUMBER=%cdnumber%" -T "TOTALDISCS=%totalcds%" -T "TOTALTRACKS=%numtracks%" -T "COMMENT=%comment%" %source% -o %dest%
TOC of the extracted CD
Track | Start | Length | Start sector | End sector
---------------------------------------------------------
1 | 0:00.00 | 5:34.05 | 0 | 25054
2 | 5:34.05 | 5:06.66 | 25055 | 48070
3 | 10:40.71 | 5:03.05 | 48071 | 70800
4 | 15:44.01 | 6:38.52 | 70801 | 100702
5 | 22:22.53 | 4:33.19 | 100703 | 121196
6 | 26:55.72 | 4:13.11 | 121197 | 140182
7 | 31:09.08 | 2:15.70 | 140183 | 150377
8 | 33:25.03 | 6:33.53 | 150378 | 179905
9 | 39:58.56 | 3:25.02 | 179906 | 195282
10 | 43:23.58 | 3:53.47 | 195283 | 212804
Track 1
Filename H:\0\..................00\post\The Isley Brothers - Go For Your Guns (1977) [2011 BBR]\01 - The Pride (Parts 1 & 2).wav
Pre-gap length 0:00:02.00
Peak level 93.1 %
Extraction speed 3.7 X
Track quality 100.0 %
Test CRC 23B708DB
Copy CRC 23B708DB
Accurately ripped (confidence 3) [745A63C8] (AR v2)
Copy OK
Track 2
Filename H:\0\..................00\post\The Isley Brothers - Go For Your Guns (1977) [2011 BBR]\02 - Footsteps in the Dark (Parts 1 & 2).wav
Pre-gap length 0:00:00.34
Peak level 96.0 %
Extraction speed 3.7 X
Track quality 100.0 %
Test CRC 8EB28582
Copy CRC 8EB28582
Accurately ripped (confidence 3) [9F0D222B] (AR v2)
Copy OK
Track 3
Filename H:\0\..................00\post\The Isley Brothers - Go For Your Guns (1977) [2011 BBR]\03 - Tell Me When You Need It Again.wav
Pre-gap length 0:00:00.34
Peak level 93.9 %
Extraction speed 4.6 X
Track quality 100.0 %
Test CRC AEA68129
Copy CRC AEA68129
Accurately ripped (confidence 3) [21AB7FFC] (AR v2)
Copy OK
Track 4
Filename H:\0\..................00\post\The Isley Brothers - Go For Your Guns (1977) [2011 BBR]\04 - Climbin' Up the Ladder (Parts 1 & 2).wav
Pre-gap length 0:00:00.34
Peak level 93.9 %
Extraction speed 5.1 X
Track quality 100.0 %
Test CRC ABD3AD2A
Copy CRC ABD3AD2A
Accurately ripped (confidence 3) [BF311D24] (AR v2)
Copy OK
Track 5
Filename H:\0\..................00\post\The Isley Brothers - Go For Your Guns (1977) [2011 BBR]\05 - Voyage to Atlantis.wav
Pre-gap length 0:00:00.34
Peak level 94.4 %
Extraction speed 5.3 X
Track quality 100.0 %
Test CRC 9BE2A7B0
Copy CRC 9BE2A7B0
Accurately ripped (confidence 3) [8C63D415] (AR v2)
Copy OK
Track 6
Filename H:\0\..................00\post\The Isley Brothers - Go For Your Guns (1977) [2011 BBR]\06 - Livin' in the Life.wav
Pre-gap length 0:00:00.34
Peak level 93.9 %
Extraction speed 5.6 X
Track quality 100.0 %
Test CRC DEF6662D
Copy CRC DEF6662D
Accurately ripped (confidence 3) [B1F5AA3D] (AR v2)
Copy OK
Track 7
Filename H:\0\..................00\post\The Isley Brothers - Go For Your Guns (1977) [2011 BBR]\07 - Go for Your Guns.wav
Peak level 93.8 %
Extraction speed 5.2 X
Track quality 100.0 %
Test CRC 982BB4BD
Copy CRC 982BB4BD
Accurately ripped (confidence 3) [A7503703] (AR v2)
Copy OK
Track 8
Filename H:\0\..................00\post\The Isley Brothers - Go For Your Guns (1977) [2011 BBR]\08 - Voyage to Atlantis (Alternate Version].wav
Pre-gap length 0:00:01.31
Peak level 91.7 %
Extraction speed 5.5 X
Track quality 99.9 %
Test CRC 240873A3
Copy CRC 240873A3
Accurately ripped (confidence 3) [F486BD73] (AR v2)
Copy OK
Track 9
Filename H:\0\..................00\post\The Isley Brothers - Go For Your Guns (1977) [2011 BBR]\09 - The Pride (Part 1) (Single Version).wav
Pre-gap length 0:00:01.61
Peak level 96.6 %
Extraction speed 6.1 X
Track quality 100.0 %
Test CRC 7F01871F
Copy CRC 7F01871F
Accurately ripped (confidence 3) [42C25EE3] (AR v2)
Copy OK
Track 10
Filename H:\0\..................00\post\The Isley Brothers - Go For Your Guns (1977) [2011 BBR]\10 - Voyage to Atlantis (Single Version).wav
Pre-gap length 0:00:00.69
Peak level 94.4 %
Extraction speed 6.4 X
Track quality 100.0 %
Test CRC 15FD56F5
Copy CRC 15FD56F5
Accurately ripped (confidence 3) [A25BFB3A] (AR v2)
Copy OK
All tracks accurately ripped
No errors occurred
End of status report
==== Log checksum C3ED4214A0EC89CC7227944B2F2179D5CA59E1EBB27665ED774A0A9CDD67380E ====
 
Содержание индексной карты (.CUE)
REM GENRE Soul
REM DATE 1977
REM DISCID 750B150A
REM COMMENT "ExactAudioCopy v1.0b3"
PERFORMER "The Isley Brothers"
TITLE "Go For Your Guns"
FILE "01 - The Pride (Parts 1 & 2).wav" WAVE
TRACK 01 AUDIO
TITLE "The Pride (Parts 1 & 2)"
PERFORMER "The Isley Brothers"
INDEX 01 00:00:00
TRACK 02 AUDIO
TITLE "Footsteps in the Dark (Parts 1 & 2)"
PERFORMER "The Isley Brothers"
INDEX 00 05:33:46
FILE "02 - Footsteps in the Dark (Parts 1 & 2).wav" WAVE
INDEX 01 00:00:00
TRACK 03 AUDIO
TITLE "Tell Me When You Need It Again"
PERFORMER "The Isley Brothers"
INDEX 00 05:06:32
FILE "03 - Tell Me When You Need It Again.wav" WAVE
INDEX 01 00:00:00
TRACK 04 AUDIO
TITLE "Climbin' Up the Ladder (Parts 1 & 2)"
PERFORMER "The Isley Brothers"
INDEX 00 05:02:46
FILE "04 - Climbin' Up the Ladder (Parts 1 & 2).wav" WAVE
INDEX 01 00:00:00
TRACK 05 AUDIO
TITLE "Voyage to Atlantis"
PERFORMER "The Isley Brothers"
INDEX 00 06:38:18
FILE "05 - Voyage to Atlantis.wav" WAVE
INDEX 01 00:00:00
TRACK 06 AUDIO
TITLE "Livin' in the Life"
PERFORMER "The Isley Brothers"
INDEX 00 04:32:60
FILE "06 - Livin' in the Life.wav" WAVE
INDEX 01 00:00:00
FILE "07 - Go for Your Guns.wav" WAVE
TRACK 07 AUDIO
TITLE "Go for Your Guns"
PERFORMER "The Isley Brothers"
INDEX 01 00:00:00
TRACK 08 AUDIO
TITLE "Voyage to Atlantis (Alternate Version]"
PERFORMER "The Isley Brothers"
INDEX 00 02:14:39
FILE "08 - Voyage to Atlantis (Alternate Version].wav" WAVE
INDEX 01 00:00:00
TRACK 09 AUDIO
TITLE "The Pride (Part 1) (Single Version)"
PERFORMER "The Isley Brothers"
INDEX 00 06:31:67
FILE "09 - The Pride (Part 1) (Single Version).wav" WAVE
INDEX 01 00:00:00
TRACK 10 AUDIO
TITLE "Voyage to Atlantis (Single Version)"
PERFORMER "The Isley Brothers"
INDEX 00 03:24:08
FILE "10 - Voyage to Atlantis (Single Version).wav" WAVE
INDEX 01 00:00:00
Приватный:
Нет (DHT включён)
Размер:
530.07 Мб (555,815,654 байт) » файлов: 24
Участники:
0 раздают, 0 качают (0 участников всего)
Внешние участники:
3 раздают, 1 качают (4 участников всего) [ Обновить ]
Есть вопросы - пишите личное сообщение пользователю M0p94ok.
06:14
44
Нет комментариев. Ваш будет первым!