Поиск

(Soul, Funk) [CD] Rufus - Party 'Til You're Broke (1981) - 2012 {UICY-25347}, FLAC (tracks+.cue), lossless

(Soul, Funk) [CD] Rufus - Party 'Til You're Broke (1981) - 2012 {UICY-25347}, FLAC (tracks+.cue), lossless
Треклист:
Rufus - Party 'Til You're Broke (1981)
Жанр: Soul, Funk
Носитель: CD
Страна-производитель диска (релиза): Japan
Год издания: 2012
Издатель (лейбл): Geffen Records
Номер по каталогу: UICY-25347
Аудиокодек: FLAC (*.flac)
Тип рипа: tracks+.cue
Битрейт аудио: lossless
Продолжительность: 39:28
Rip by JET 1
Наличие сканов в содержимом раздачи: да
Треклист:
01. Tonight We Love (4:33)
02. Hold On To A Friend (3:18)
03. Love Is Taking Over (4:07)
04. Secret Love (3:51)
05. Party 'Til You're Broke (3:37)
06. Can I Show You (5:14)
07. You're Made For Me (3:31)
08. What Is It (4:23)
09. We Got The Way (3:46)
10. Afterwards (3:09)
 
 
Лог создания рипа
Exact Audio Copy V1.0 beta 3 from 29. August 2011
EAC extraction logfile from 2. June 2015, 13:10
Rufus / Rufus
Used drive : ATAPI DVD A DH16A6L-C Adapter: 2 ID: 0
Read mode : Secure
Utilize accurate stream : Yes
Defeat audio cache : Yes
Make use of C2 pointers : No
Read offset correction : 6
Overread into Lead-In and Lead-Out : No
Fill up missing offset samples with silence : Yes
Delete leading and trailing silent blocks : No
Null samples used in CRC calculations : Yes
Used interface : Native Win32 interface for Win NT & 2000
Gap handling : Appended to previous track
Used output format : User Defined Encoder
Selected bitrate : 1024 kBit/s
Quality : High
Add ID3 tag : No
Command line compressor : C:\Program Files\FLAC\flac.exe
Additional command line options : -8 -V -T "ARTIST=%artist%" -T "TITLE=%title%" -T "ALBUM=%albumtitle%" -T "DATE=%year%" -T "TRACKNUMBER=%tracknr%" -T "GENRE=%genre%" -T "PERFORMER=%albuminterpret%" -T "COMPOSER=%composer%" %haslyrics%--tag-from-file=LYRICS="%lyricsfile%"%haslyrics% -T "ALBUMARTIST=%albumartist%" -T "DISCNUMBER=%cdnumber%" -T "TOTALDISCS=%totalcds%" -T "TOTALTRACKS=%numtracks%" -T "COMMENT=%comment%" %source% -o %dest%
TOC of the extracted CD
Track | Start | Length | Start sector | End sector
---------------------------------------------------------
1 | 0:00.00 | 4:32.59 | 0 | 20458
2 | 4:32.59 | 3:17.69 | 20459 | 35302
3 | 7:50.53 | 4:07.21 | 35303 | 53848
4 | 11:57.74 | 3:50.52 | 53849 | 71150
5 | 15:48.51 | 3:36.60 | 71151 | 87410
6 | 19:25.36 | 5:13.40 | 87411 | 110925
7 | 24:39.01 | 3:30.63 | 110926 | 126738
8 | 28:09.64 | 4:23.27 | 126739 | 146490
9 | 32:33.16 | 3:46.14 | 146491 | 163454
10 | 36:19.30 | 3:08.48 | 163455 | 177602
Track 1
Filename F:\MUSIC\0\POSTS\Rufus - Party 'Til You're Broke (1981) [2012 Japan LTD SHM-CD]\01 - Tonight We Love.wav
Pre-gap length 0:00:02.00
Peak level 98.7 %
Extraction speed 3.4 X
Track quality 100.0 %
Test CRC D3CC340C
Copy CRC D3CC340C
Accurately ripped (confidence 5) [5352F7CF] (AR v2)
Copy OK
Track 2
Filename F:\MUSIC\0\POSTS\Rufus - Party 'Til You're Broke (1981) [2012 Japan LTD SHM-CD]\02 - Hold On To A Friend.wav
Pre-gap length 0:00:01.47
Peak level 98.8 %
Extraction speed 3.6 X
Track quality 100.0 %
Test CRC 503E881A
Copy CRC 503E881A
Accurately ripped (confidence 5) [64F9E63E] (AR v2)
Copy OK
Track 3
Filename F:\MUSIC\0\POSTS\Rufus - Party 'Til You're Broke (1981) [2012 Japan LTD SHM-CD]\03 - Love Is Taking Over.wav
Pre-gap length 0:00:04.16
Peak level 98.8 %
Extraction speed 4.1 X
Track quality 100.0 %
Test CRC C6994DCE
Copy CRC C6994DCE
Accurately ripped (confidence 5) [B39408FD] (AR v2)
Copy OK
Track 4
Filename F:\MUSIC\0\POSTS\Rufus - Party 'Til You're Broke (1981) [2012 Japan LTD SHM-CD]\04 - Secret Love.wav
Pre-gap length 0:00:04.54
Peak level 98.7 %
Extraction speed 4.3 X
Track quality 100.0 %
Test CRC 888B6B70
Copy CRC 888B6B70
Accurately ripped (confidence 5) [3AB78C06] (AR v2)
Copy OK
Track 5
Filename F:\MUSIC\0\POSTS\Rufus - Party 'Til You're Broke (1981) [2012 Japan LTD SHM-CD]\05 - Party 'Til You're Broke.wav
Pre-gap length 0:00:05.45
Peak level 98.7 %
Extraction speed 3.6 X
Track quality 99.9 %
Test CRC 79FC4A31
Copy CRC 79FC4A31
Accurately ripped (confidence 5) [AB7A2323] (AR v2)
Copy OK
Track 6
Filename F:\MUSIC\0\POSTS\Rufus - Party 'Til You're Broke (1981) [2012 Japan LTD SHM-CD]\06 - Can I Show You.wav
Pre-gap length 0:00:04.61
Peak level 98.8 %
Extraction speed 5.0 X
Track quality 100.0 %
Test CRC B25347CC
Copy CRC B25347CC
Accurately ripped (confidence 5) [24DA43BA] (AR v2)
Copy OK
Track 7
Filename F:\MUSIC\0\POSTS\Rufus - Party 'Til You're Broke (1981) [2012 Japan LTD SHM-CD]\07 - You're Made For Me.wav
Pre-gap length 0:00:03.08
Peak level 98.8 %
Extraction speed 4.0 X
Track quality 99.9 %
Test CRC 91F6B7CF
Copy CRC 91F6B7CF
Accurately ripped (confidence 5) [1498534E] (AR v2)
Copy OK
Track 8
Filename F:\MUSIC\0\POSTS\Rufus - Party 'Til You're Broke (1981) [2012 Japan LTD SHM-CD]\08 - What Is It.wav
Pre-gap length 0:00:01.40
Peak level 98.8 %
Extraction speed 5.5 X
Track quality 100.0 %
Test CRC BB145BD5
Copy CRC BB145BD5
Accurately ripped (confidence 5) [D985D061] (AR v2)
Copy OK
Track 9
Filename F:\MUSIC\0\POSTS\Rufus - Party 'Til You're Broke (1981) [2012 Japan LTD SHM-CD]\09 - We Got The Way.wav
Pre-gap length 0:00:02.72
Peak level 98.8 %
Extraction speed 5.5 X
Track quality 100.0 %
Test CRC A8F0B3C9
Copy CRC A8F0B3C9
Accurately ripped (confidence 5) [42EE4E9C] (AR v2)
Copy OK
Track 10
Filename F:\MUSIC\0\POSTS\Rufus - Party 'Til You're Broke (1981) [2012 Japan LTD SHM-CD]\10 - Afterwards.wav
Pre-gap length 0:00:01.39
Peak level 98.8 %
Extraction speed 5.5 X
Track quality 100.0 %
Test CRC 4858E512
Copy CRC 4858E512
Accurately ripped (confidence 5) [7FB6EA39] (AR v2)
Copy OK
All tracks accurately ripped
No errors occurred
End of status report
==== Log checksum 0E6BBE895CA4FA0A609342147073B5DE82DA5CE6126DD98EE698A9A8A550431D ====
 
Содержание индексной карты (.CUE)
REM GENRE Funk
REM DATE 1981
REM DISCID 8909400A
REM COMMENT "ExactAudioCopy v1.0b3"
PERFORMER "Rufus"
TITLE "Party 'Til You're Broke"
FILE "01 - Tonight We Love.wav" WAVE
TRACK 01 AUDIO
TITLE "Tonight We Love"
PERFORMER "Rufus"
INDEX 01 00:00:00
TRACK 02 AUDIO
TITLE "Hold On To A Friend"
PERFORMER "Rufus"
INDEX 00 04:31:12
FILE "02 - Hold On To A Friend.wav" WAVE
INDEX 01 00:00:00
TRACK 03 AUDIO
TITLE "Love Is Taking Over"
PERFORMER "Rufus"
INDEX 00 03:13:53
FILE "03 - Love Is Taking Over.wav" WAVE
INDEX 01 00:00:00
TRACK 04 AUDIO
TITLE "Secret Love"
PERFORMER "Rufus"
INDEX 00 04:02:42
FILE "04 - Secret Love.wav" WAVE
INDEX 01 00:00:00
TRACK 05 AUDIO
TITLE "Party 'Til You're Broke"
PERFORMER "Rufus"
INDEX 00 03:45:07
FILE "05 - Party 'Til You're Broke.wav" WAVE
INDEX 01 00:00:00
TRACK 06 AUDIO
TITLE "Can I Show You"
PERFORMER "Rufus"
INDEX 00 03:31:74
FILE "06 - Can I Show You.wav" WAVE
INDEX 01 00:00:00
TRACK 07 AUDIO
TITLE "You're Made For Me"
PERFORMER "Rufus"
INDEX 00 05:10:32
FILE "07 - You're Made For Me.wav" WAVE
INDEX 01 00:00:00
TRACK 08 AUDIO
TITLE "What Is It"
PERFORMER "Rufus"
INDEX 00 03:29:23
FILE "08 - What Is It.wav" WAVE
INDEX 01 00:00:00
TRACK 09 AUDIO
TITLE "We Got The Way"
PERFORMER "Rufus"
INDEX 00 04:20:30
FILE "09 - We Got The Way.wav" WAVE
INDEX 01 00:00:00
TRACK 10 AUDIO
TITLE "Afterwards"
PERFORMER "Rufus"
INDEX 00 03:44:50
FILE "10 - Afterwards.wav" WAVE
INDEX 01 00:00:00
Приватный:
Нет (DHT включён)
Размер:
363.60 Мб (381,258,569 байт) » файлов: 31
Участники:
0 раздают, 1 качают (1 участников всего)
Внешние участники:
3 раздают, 1 качают (4 участников всего) [ Обновить ]
Скорость:
445.90 Кб/c 0/c
Есть вопросы - пишите личное сообщение пользователю M0p94ok.
06:15
75
Нет комментариев. Ваш будет первым!