Поиск

(Funk, Soul) [CD] The Chi-Lites - The Complete Chi-Lites On Brunswick Volume 2 - 2004 (2CD Remastered), FLAC (tracks+.cue), lossless

(Funk, Soul) [CD] The Chi-Lites - The Complete Chi-Lites On Brunswick Volume 2 - 2004 (2CD Remastered), FLAC (tracks+.cue), lossless
Треклист:
The Chi-Lites / The Complete Chi-Lites On Brunswick Volume 2
Жанр: Funk, Soul
Носитель: CD
Страна-производитель диска (релиза): UK
Год издания: 2004
Издатель (лейбл): Edsel Records
Номер по каталогу: MEDCD 737
Страна исполнителя (группы): USA
Аудиокодек: FLAC (*.flac)
Тип рипа: tracks+.cue
Битрейт аудио: lossless
Продолжительность: 2:25:02
Источник (релизер): artmuss
Наличие сканов в содержимом раздачи: Front
 
CD1
1973 A Letter To Myself Part 2
01. We Need Order
02. Love Comes in All Sizes
03. My Heart Just Keeps on Breakin'
04. You Smiled the Same Old Way
1973 Chi-Lites
05. Homely Girl
06. Go Away Dream
07. Too Good to Be Forgotten
08. I Found Sunshine
09. I Never Had It So Good (And Felt So Bad)
10. Marriage License
11. I Forgot to Say I Love You Till I'm Gone
12. One Man Band (Plays All Alone)
13. Bet You'll Never Be Sorry
14. Stoned out of My Mind
1974 Toby
15. Toby
16. You Got to Be the One
17. The Sound of Lonely
 
Лог создания рипа
Exact Audio Copy V0.99 prebeta 4 from 23. January 2008
EAC extraction logfile from 12. February 2010, 14:55
The Chi-Lites / The Complete The Chi-Lites on Brunswick Records - Volume 2
Used drive : PIONEER DVD-RW DVR-215 Adapter: 2 ID: 0
Read mode : Secure
Utilize accurate stream : Yes
Defeat audio cache : Yes
Make use of C2 pointers : No
Read offset correction : 48
Overread into Lead-In and Lead-Out : No
Fill up missing offset samples with silence : Yes
Delete leading and trailing silent blocks : No
Null samples used in CRC calculations : Yes
Used interface : Native Win32 interface for Win NT & 2000
Gap handling : Appended to previous track
Used output format : User Defined Encoder
Selected bitrate : 320 kBit/s
Quality : High
Add ID3 tag : No
Command line compressor : C:\Program Files (x86)\Exact Audio Copy\Flac\flac.exe
Additional command line options : -V -8 -T "artist=%a" -T "title=%t" -T "album=%g" -T "date=%y" -T "tracknumber=%n" -T "genre=%m" %s
TOC of the extracted CD
Track | Start | Length | Start sector | End sector
---------------------------------------------------------
1 | 0:00.00 | 5:21.07 | 0 | 24081
2 | 5:21.07 | 6:02.41 | 24082 | 51272
3 | 11:23.48 | 4:07.61 | 51273 | 69858
4 | 15:31.34 | 6:46.06 | 69859 | 100314
5 | 22:17.40 | 3:34.66 | 100315 | 116430
6 | 25:52.31 | 3:26.37 | 116431 | 131917
7 | 29:18.68 | 3:19.03 | 131918 | 146845
8 | 32:37.71 | 3:09.24 | 146846 | 161044
9 | 35:47.20 | 5:09.57 | 161045 | 184276
10 | 40:57.02 | 5:33.73 | 184277 | 209324
11 | 46:31.00 | 3:00.24 | 209325 | 222848
12 | 49:31.24 | 4:50.74 | 222849 | 244672
13 | 54:22.23 | 3:16.03 | 244673 | 259375
14 | 57:38.26 | 3:05.47 | 259376 | 273297
15 | 60:43.73 | 3:49.65 | 273298 | 290537
16 | 64:33.63 | 3:58.47 | 290538 | 308434
17 | 68:32.35 | 5:04.72 | 308435 | 331306
Track 1
Filename B:\Artists\The Chi-Lites\The Complete The Chi-Lites on Brunswick Records - Volume 2\Disc 1\01 - We Need Order.wav
Pre-gap length 0:00:02.00
Peak level 96.4 %
Track quality 99.9 %
Test CRC 5A5A6194
Copy CRC 5A5A6194
Track not present in AccurateRip database
Copy OK
Track 2
Filename B:\Artists\The Chi-Lites\The Complete The Chi-Lites on Brunswick Records - Volume 2\Disc 1\02 - Love Comes In All Sizes.wav
Pre-gap length 0:00:02.54
Peak level 86.0 %
Track quality 100.0 %
Test CRC 719DCD4F
Copy CRC 719DCD4F
Track not present in AccurateRip database
Copy OK
Track 3
Filename B:\Artists\The Chi-Lites\The Complete The Chi-Lites on Brunswick Records - Volume 2\Disc 1\03 - My Heart Just Keeps On Breaking.wav
Pre-gap length 0:00:02.54
Peak level 86.0 %
Track quality 100.0 %
Test CRC DADCC6CD
Copy CRC DADCC6CD
Track not present in AccurateRip database
Copy OK
Track 4
Filename B:\Artists\The Chi-Lites\The Complete The Chi-Lites on Brunswick Records - Volume 2\Disc 1\04 - You Smiled The Same Old Way.wav
Pre-gap length 0:00:02.54
Peak level 96.4 %
Track quality 99.9 %
Test CRC 44F7F556
Copy CRC 44F7F556
Track not present in AccurateRip database
Copy OK
Track 5
Filename B:\Artists\The Chi-Lites\The Complete The Chi-Lites on Brunswick Records - Volume 2\Disc 1\05 - Homely Girl.wav
Pre-gap length 0:00:03.54
Peak level 95.1 %
Track quality 100.0 %
Test CRC 6604845D
Copy CRC 6604845D
Track not present in AccurateRip database
Copy OK
Track 6
Filename B:\Artists\The Chi-Lites\The Complete The Chi-Lites on Brunswick Records - Volume 2\Disc 1\06 - Go Away Dream.wav
Pre-gap length 0:00:02.54
Peak level 96.5 %
Track quality 100.0 %
Test CRC 3F49343A
Copy CRC 3F49343A
Track not present in AccurateRip database
Copy OK
Track 7
Filename B:\Artists\The Chi-Lites\The Complete The Chi-Lites on Brunswick Records - Volume 2\Disc 1\07 - Too Good To Be Forgotten.wav
Pre-gap length 0:00:02.54
Peak level 96.5 %
Track quality 100.0 %
Test CRC 3507A8CA
Copy CRC 3507A8CA
Track not present in AccurateRip database
Copy OK
Track 8
Filename B:\Artists\The Chi-Lites\The Complete The Chi-Lites on Brunswick Records - Volume 2\Disc 1\08 - I Found Sunshine.wav
Pre-gap length 0:00:02.54
Peak level 96.4 %
Track quality 100.0 %
Test CRC 9D2887C5
Copy CRC 9D2887C5
Track not present in AccurateRip database
Copy OK
Track 9
Filename B:\Artists\The Chi-Lites\The Complete The Chi-Lites on Brunswick Records - Volume 2\Disc 1\09 - I Never Had It So Good (And Felt So Bad).wav
Pre-gap length 0:00:02.54
Peak level 96.4 %
Track quality 100.0 %
Test CRC 5C06E54B
Copy CRC 5C06E54B
Track not present in AccurateRip database
Copy OK
Track 10
Filename B:\Artists\The Chi-Lites\The Complete The Chi-Lites on Brunswick Records - Volume 2\Disc 1\10 - Marriage License.wav
Pre-gap length 0:00:02.54
Peak level 96.5 %
Track quality 100.0 %
Test CRC 5486C532
Copy CRC 5486C532
Track not present in AccurateRip database
Copy OK
Track 11
Filename B:\Artists\The Chi-Lites\The Complete The Chi-Lites on Brunswick Records - Volume 2\Disc 1\11 - I Forgot To Say I Love You Till I'm Gone.wav
Pre-gap length 0:00:02.54
Peak level 96.5 %
Track quality 99.9 %
Test CRC 197D4E52
Copy CRC 197D4E52
Track not present in AccurateRip database
Copy OK
Track 12
Filename B:\Artists\The Chi-Lites\The Complete The Chi-Lites on Brunswick Records - Volume 2\Disc 1\12 - One Man Band (Plays Alone).wav
Pre-gap length 0:00:02.54
Peak level 96.5 %
Track quality 100.0 %
Test CRC FAC68AFF
Copy CRC FAC68AFF
Track not present in AccurateRip database
Copy OK
Track 13
Filename B:\Artists\The Chi-Lites\The Complete The Chi-Lites on Brunswick Records - Volume 2\Disc 1\13 - Bet You'll Never Be Sorry.wav
Pre-gap length 0:00:02.54
Peak level 96.5 %
Track quality 100.0 %
Test CRC D3778148
Copy CRC D3778148
Track not present in AccurateRip database
Copy OK
Track 14
Filename B:\Artists\The Chi-Lites\The Complete The Chi-Lites on Brunswick Records - Volume 2\Disc 1\14 - Stoned Out Of My Mind.wav
Pre-gap length 0:00:02.54
Peak level 96.4 %
Track quality 99.9 %
Test CRC A9116B49
Copy CRC A9116B49
Track not present in AccurateRip database
Copy OK
Track 15
Filename B:\Artists\The Chi-Lites\The Complete The Chi-Lites on Brunswick Records - Volume 2\Disc 1\15 - Toby.wav
Pre-gap length 0:00:03.54
Peak level 96.4 %
Track quality 100.0 %
Test CRC A296960E
Copy CRC A296960E
Track not present in AccurateRip database
Copy OK
Track 16
Filename B:\Artists\The Chi-Lites\The Complete The Chi-Lites on Brunswick Records - Volume 2\Disc 1\16 - You Got To Be The One.wav
Pre-gap length 0:00:02.54
Peak level 96.4 %
Track quality 100.0 %
Test CRC 4F7BC452
Copy CRC 4F7BC452
Track not present in AccurateRip database
Copy OK
Track 17
Filename B:\Artists\The Chi-Lites\The Complete The Chi-Lites on Brunswick Records - Volume 2\Disc 1\17 - The Sound Of Lonely.wav
Pre-gap length 0:00:02.54
Peak level 96.5 %
Track quality 100.0 %
Test CRC 6BE31DEF
Copy CRC 6BE31DEF
Track not present in AccurateRip database
Copy OK
None of the tracks are present in the AccurateRip database
No errors occurred
End of status report
 
Содержание индексной карты (.CUE)
REM GENRE Soul
REM DATE 2004
REM DISCID 5D234F12
REM COMMENT "ExactAudioCopy v0.99pb4"
PERFORMER "The Chi-Lites"
TITLE "The Complete The Chi-Lites on Brunswick Records - Volume 2 "
FILE "01. We Need Order.flac" WAVE
TRACK 01 AUDIO
INDEX 01 00:00:00
FILE "02. Love Comes in All Sizes.flac" WAVE
TRACK 02 AUDIO
INDEX 01 00:00:00
FILE "03. My Heart Just Keeps on Breaking.flac" WAVE
TRACK 03 AUDIO
INDEX 01 00:00:00
FILE "04. You Smiled the Same Old Way.flac" WAVE
TRACK 04 AUDIO
INDEX 01 00:00:00
FILE "05. Homely Girl.flac" WAVE
TRACK 05 AUDIO
INDEX 01 00:00:00
FILE "06. Go Away Dream.flac" WAVE
TRACK 06 AUDIO
INDEX 01 00:00:00
FILE "07. Too Good to Be Forgotten.flac" WAVE
TRACK 07 AUDIO
INDEX 01 00:00:00
FILE "08. I Found Sunshine.flac" WAVE
TRACK 08 AUDIO
INDEX 01 00:00:00
FILE "09. I Never Had It So Good (And Felt So Bad).flac" WAVE
TRACK 09 AUDIO
INDEX 01 00:00:00
FILE "10. Marriage License.flac" WAVE
TRACK 10 AUDIO
INDEX 01 00:00:00
FILE "11. I Forgot to Say I Love You Till I'm Gone.flac" WAVE
TRACK 11 AUDIO
INDEX 01 00:00:00
FILE "12. One Man Band (Plays Alone).flac" WAVE
TRACK 12 AUDIO
INDEX 01 00:00:00
FILE "13. Bet You'll Never Be Sorry.flac" WAVE
TRACK 13 AUDIO
INDEX 01 00:00:00
FILE "14. Stoned Out of My Mind.flac" WAVE
TRACK 14 AUDIO
INDEX 01 00:00:00
FILE "15. Toby.flac" WAVE
TRACK 15 AUDIO
INDEX 01 00:00:00
FILE "16. You Got to Be the One.flac" WAVE
TRACK 16 AUDIO
INDEX 01 00:00:00
FILE "17. The Sound of Lonely.flac" WAVE
TRACK 17 AUDIO
INDEX 01 00:00:00
 
DR Log
foobar2000 1.1.10 / Dynamic Range Meter 1.1.1
log date: 2018-07-12 11:44:34
--------------------------------------------------------------------------------
Analyzed: The Chi-Lites / The Complete the Chi-Lites on Brunswick, Volume 2
--------------------------------------------------------------------------------
DR Peak RMS Duration Track
--------------------------------------------------------------------------------
DR13 -0.31 dB -15.46 dB 5:21 ?-We Need Order
DR12 -1.31 dB -16.08 dB 6:03 ?-Love Comes in All Sizes
DR13 -1.31 dB -16.13 dB 4:08 ?-My Heart Just Keeps on Breaking
DR11 -0.31 dB -14.91 dB 6:46 ?-You Smiled the Same Old Way
DR11 -0.44 dB -14.97 dB 3:35 ?-Homely Girl
DR13 -0.31 dB -16.22 dB 3:26 ?-Go Away Dream
DR12 -0.31 dB -15.01 dB 3:19 ?-Too Good to Be Forgotten
DR12 -0.31 dB -14.54 dB 3:09 ?-I Found Sunshine
DR10 -0.31 dB -15.04 dB 5:10 ?-I Never Had It So Good (And Felt So Bad)
DR12 -0.31 dB -14.46 dB 5:34 ?-Marriage License
DR12 -0.31 dB -15.27 dB 3:00 ?-I Forgot to Say I Love You Till I'm Gone
DR12 -0.31 dB -14.22 dB 4:51 ?-One Man Band (Plays Alone)
DR13 -0.31 dB -14.86 dB 3:16 ?-Bet You'll Never Be Sorry
DR14 -0.31 dB -15.53 dB 3:06 ?-Stoned Out of My Mind
DR12 -0.31 dB -14.91 dB 3:50 ?-Toby
DR11 -0.31 dB -14.87 dB 3:59 ?-You Got to Be the One
DR11 -0.31 dB -15.06 dB 5:05 ?-The Sound of Lonely
--------------------------------------------------------------------------------
Number of tracks: 17
Official DR value: DR12
Samplerate: 44100 Hz
Channels: 2
Bits per sample: 16
Bitrate: 890 kbps
Codec: FLAC
================================================================================
 
CD2
1974 Toby
01. The First Time (Ever I Saw Your Face)
02. There Will Never Be Any Peace (Until God Is Seated at the ...)
03. That's How Long
04. Happiness Is Your Middle Name
05. I Lied
06. I Like to Live the Love (That I Sing About)
07. Gettin' on Outta Town
1975 Half A Love
08. Half a Love
09. Here I Am
10. When Temptation Comes
11. It's Time for Love
12. Take a Trip to the Islands
13. I'm Not a Gambler
Later Singles ( 1975/76 )
14. You Don't Have to Go
15. The Devil Is Doing His Work
16. Don't Burn No Bridges
17. You Don't Have to Go (Edited Version)
 
Лог создания рипа
Exact Audio Copy V0.99 prebeta 4 from 23. January 2008
EAC extraction logfile from 12. February 2010, 15:36
The Chi-Lites / The Complete The Chi-Lites on Brunswick Records - Volume 2
Used drive : PIONEER DVD-RW DVR-215 Adapter: 2 ID: 0
Read mode : Secure
Utilize accurate stream : Yes
Defeat audio cache : Yes
Make use of C2 pointers : No
Read offset correction : 48
Overread into Lead-In and Lead-Out : No
Fill up missing offset samples with silence : Yes
Delete leading and trailing silent blocks : No
Null samples used in CRC calculations : Yes
Used interface : Native Win32 interface for Win NT & 2000
Gap handling : Appended to previous track
Used output format : User Defined Encoder
Selected bitrate : 320 kBit/s
Quality : High
Add ID3 tag : No
Command line compressor : C:\Program Files (x86)\Exact Audio Copy\Flac\flac.exe
Additional command line options : -V -8 -T "artist=%a" -T "title=%t" -T "album=%g" -T "date=%y" -T "tracknumber=%n" -T "genre=%m" %s
TOC of the extracted CD
Track | Start | Length | Start sector | End sector
---------------------------------------------------------
1 | 0:00.00 | 5:29.72 | 0 | 24746
2 | 5:29.72 | 5:16.45 | 24747 | 48491
3 | 10:46.42 | 5:07.30 | 48492 | 71546
4 | 15:53.72 | 3:36.33 | 71547 | 87779
5 | 19:30.30 | 5:43.71 | 87780 | 113575
6 | 25:14.26 | 4:03.61 | 113576 | 131861
7 | 29:18.12 | 2:53.62 | 131862 | 144898
8 | 32:11.74 | 2:51.65 | 144899 | 157788
9 | 35:03.64 | 3:47.19 | 157789 | 174832
10 | 38:51.08 | 4:22.49 | 174833 | 194531
11 | 43:13.57 | 5:08.05 | 194532 | 217636
12 | 48:21.62 | 3:33.01 | 217637 | 233612
13 | 51:54.63 | 3:59.41 | 233613 | 251578
14 | 55:54.29 | 4:50.18 | 251579 | 273346
15 | 60:44.47 | 3:38.07 | 273347 | 289703
16 | 64:22.54 | 3:30.18 | 289704 | 305471
17 | 67:52.72 | 3:32.06 | 305472 | 321377
Track 1
Filename B:\Artists\The Chi-Lites\The Complete The Chi-Lites on Brunswick Records - Volume 2\Disc 2\01 - The First Time (Ever I Saw Your Face).wav
Pre-gap length 0:00:02.00
Peak level 96.5 %
Track quality 100.0 %
Test CRC 3CE74D24
Copy CRC 3CE74D24
Track not present in AccurateRip database
Copy OK
Track 2
Filename B:\Artists\The Chi-Lites\The Complete The Chi-Lites on Brunswick Records - Volume 2\Disc 2\02 - There Will Never Be Any Peace (Until God Is Seated At The Conference Table).wav
Pre-gap length 0:00:02.54
Peak level 96.4 %
Track quality 100.0 %
Test CRC 945BE4FF
Copy CRC 945BE4FF
Track not present in AccurateRip database
Copy OK
Track 3
Filename B:\Artists\The Chi-Lites\The Complete The Chi-Lites on Brunswick Records - Volume 2\Disc 2\03 - That's How Lond.wav
Pre-gap length 0:00:02.54
Peak level 96.5 %
Track quality 100.0 %
Test CRC FE5AE713
Copy CRC FE5AE713
Track not present in AccurateRip database
Copy OK
Track 4
Filename B:\Artists\The Chi-Lites\The Complete The Chi-Lites on Brunswick Records - Volume 2\Disc 2\04 - Happiness Is Your Middle Name.wav
Pre-gap length 0:00:02.54
Peak level 96.5 %
Track quality 100.0 %
Test CRC 21BDE629
Copy CRC 21BDE629
Track not present in AccurateRip database
Copy OK
Track 5
Filename B:\Artists\The Chi-Lites\The Complete The Chi-Lites on Brunswick Records - Volume 2\Disc 2\05 - I Lied.wav
Pre-gap length 0:00:02.54
Peak level 96.4 %
Track quality 100.0 %
Test CRC 45DFD74F
Copy CRC 45DFD74F
Track not present in AccurateRip database
Copy OK
Track 6
Filename B:\Artists\The Chi-Lites\The Complete The Chi-Lites on Brunswick Records - Volume 2\Disc 2\06 - I Like To Live The Love (That I Sing About).wav
Pre-gap length 0:00:02.54
Peak level 96.4 %
Track quality 100.0 %
Test CRC F57A9A8D
Copy CRC F57A9A8D
Track not present in AccurateRip database
Copy OK
Track 7
Filename B:\Artists\The Chi-Lites\The Complete The Chi-Lites on Brunswick Records - Volume 2\Disc 2\07 - Gettin' On Outta Town.wav
Pre-gap length 0:00:02.53
Peak level 94.9 %
Track quality 100.0 %
Test CRC BC60489A
Copy CRC BC60489A
Track not present in AccurateRip database
Copy OK
Track 8
Filename B:\Artists\The Chi-Lites\The Complete The Chi-Lites on Brunswick Records - Volume 2\Disc 2\08 - Half A Love.wav
Pre-gap length 0:00:03.54
Peak level 96.4 %
Track quality 100.0 %
Test CRC D0330469
Copy CRC D0330469
Track not present in AccurateRip database
Copy OK
Track 9
Filename B:\Artists\The Chi-Lites\The Complete The Chi-Lites on Brunswick Records - Volume 2\Disc 2\09 - Here I Am.wav
Pre-gap length 0:00:02.54
Peak level 96.4 %
Track quality 100.0 %
Test CRC C488284B
Copy CRC C488284B
Track not present in AccurateRip database
Copy OK
Track 10
Filename B:\Artists\The Chi-Lites\The Complete The Chi-Lites on Brunswick Records - Volume 2\Disc 2\10 - When Temptation Comes.wav
Pre-gap length 0:00:02.40
Peak level 96.4 %
Track quality 99.9 %
Test CRC EF6290EF
Copy CRC EF6290EF
Track not present in AccurateRip database
Copy OK
Track 11
Filename B:\Artists\The Chi-Lites\The Complete The Chi-Lites on Brunswick Records - Volume 2\Disc 2\11 - It's Time For Love.wav
Pre-gap length 0:00:02.54
Peak level 96.4 %
Track quality 100.0 %
Test CRC 28AB5382
Copy CRC 28AB5382
Track not present in AccurateRip database
Copy OK
Track 12
Filename B:\Artists\The Chi-Lites\The Complete The Chi-Lites on Brunswick Records - Volume 2\Disc 2\12 - Take A Trip To The Islands.wav
Pre-gap length 0:00:02.54
Peak level 96.5 %
Track quality 100.0 %
Test CRC 7BE0D276
Copy CRC 7BE0D276
Track not present in AccurateRip database
Copy OK
Track 13
Filename B:\Artists\The Chi-Lites\The Complete The Chi-Lites on Brunswick Records - Volume 2\Disc 2\13 - I'm Not A Gambler.wav
Pre-gap length 0:00:02.54
Peak level 96.4 %
Track quality 100.0 %
Test CRC 8BF041F5
Copy CRC 8BF041F5
Track not present in AccurateRip database
Copy OK
Track 14
Filename B:\Artists\The Chi-Lites\The Complete The Chi-Lites on Brunswick Records - Volume 2\Disc 2\14 - You Don't Have To Go.wav
Pre-gap length 0:00:03.53
Peak level 86.0 %
Track quality 99.9 %
Test CRC FB4619F4
Copy CRC FB4619F4
Track not present in AccurateRip database
Copy OK
Track 15
Filename B:\Artists\The Chi-Lites\The Complete The Chi-Lites on Brunswick Records - Volume 2\Disc 2\15 - The Devil Is Doing His Work.wav
Pre-gap length 0:00:02.54
Peak level 86.0 %
Track quality 100.0 %
Test CRC A15D4C92
Copy CRC A15D4C92
Track not present in AccurateRip database
Copy OK
Track 16
Filename B:\Artists\The Chi-Lites\The Complete The Chi-Lites on Brunswick Records - Volume 2\Disc 2\16 - Don't Burn No Bridges (with Jackie Wilson).wav
Pre-gap length 0:00:02.54
Peak level 96.4 %
Track quality 100.0 %
Test CRC C274C624
Copy CRC C274C624
Track not present in AccurateRip database
Copy OK
Track 17
Filename B:\Artists\The Chi-Lites\The Complete The Chi-Lites on Brunswick Records - Volume 2\Disc 2\17 - You Don't Have To Go (edited version).wav
Pre-gap length 0:00:02.54
Peak level 85.9 %
Track quality 100.0 %
Test CRC 8D0A7F8B
Copy CRC 8D0A7F8B
Track not present in AccurateRip database
Copy OK
None of the tracks are present in the AccurateRip database
No errors occurred
End of status report
 
Содержание индексной карты (.CUE)
REM GENRE Soul
REM DATE 2004
REM DISCID 3D334F25
REM COMMENT "ExactAudioCopy v0.99pb4"
FILE "01. The First Time Ever I Saw Your Face.flac" WAVE
TRACK 01 AUDIO
INDEX 01 00:00:00
FILE "02. There Will Never Be Any Peace (Until God Is Seated at the Conference Table).flac" WAVE
TRACK 02 AUDIO
INDEX 01 00:00:00
FILE "03. That's How Lond.flac" WAVE
TRACK 03 AUDIO
INDEX 01 00:00:00
FILE "04. Happiness Is Your Middle Name.flac" WAVE
TRACK 04 AUDIO
INDEX 01 00:00:00
FILE "05. I Lied.flac" WAVE
TRACK 05 AUDIO
INDEX 01 00:00:00
FILE "06. I Like to Live the Love (That I Sing About).flac" WAVE
TRACK 06 AUDIO
INDEX 01 00:00:00
FILE "07. Gettin' on Outta Town.flac" WAVE
TRACK 07 AUDIO
INDEX 01 00:00:00
FILE "08. Half a Love.flac" WAVE
TRACK 08 AUDIO
INDEX 01 00:00:00
FILE "09. Here I Am.flac" WAVE
TRACK 09 AUDIO
INDEX 01 00:00:00
FILE "10. When Temptation Comes.flac" WAVE
TRACK 10 AUDIO
INDEX 01 00:00:00
FILE "11. It's Time for Love.flac" WAVE
TRACK 11 AUDIO
INDEX 01 00:00:00
FILE "12. Take a Trip to the Islands.flac" WAVE
TRACK 12 AUDIO
INDEX 01 00:00:00
FILE "13. I'm Not a Gambler.flac" WAVE
TRACK 13 AUDIO
INDEX 01 00:00:00
FILE "14. You Don't Have to Go.flac" WAVE
TRACK 14 AUDIO
INDEX 01 00:00:00
FILE "15. The Devil Is Doing His Work.flac" WAVE
TRACK 15 AUDIO
INDEX 01 00:00:00
FILE "16. Don't Burn No Bridges (With Jackie Wilson).flac" WAVE
TRACK 16 AUDIO
INDEX 01 00:00:00
FILE "17. You Don't Have to Go (Edited version).flac" WAVE
TRACK 17 AUDIO
INDEX 01 00:00:00
 
DR Log
foobar2000 1.1.10 / Dynamic Range Meter 1.1.1
log date: 2018-07-12 11:47:40
--------------------------------------------------------------------------------
Analyzed: The Chi-Lites / The Complete the Chi-Lites on Brunswick, Volume 2
--------------------------------------------------------------------------------
DR Peak RMS Duration Track
--------------------------------------------------------------------------------
DR12 -0.31 dB -15.12 dB 5:30 ?-The First Time Ever I Saw Your Face
DR12 -0.31 dB -14.58 dB 5:17 ?-There Will Never Be Any Peace (Until God Is Seated at the Conference Table)
DR11 -0.30 dB -13.58 dB 5:07 ?-That's How Lond
DR11 -0.31 dB -14.29 dB 3:36 ?-Happiness Is Your Middle Name
DR12 -0.31 dB -14.56 dB 5:44 ?-I Lied
DR12 -0.31 dB -14.11 dB 4:04 ?-I Like to Live the Love (That I Sing About)
DR13 -0.45 dB -15.07 dB 2:54 ?-Gettin' on Outta Town
DR11 -0.31 dB -13.39 dB 2:52 ?-Half a Love
DR11 -0.31 dB -12.81 dB 3:47 ?-Here I Am
DR13 -0.31 dB -14.40 dB 4:23 ?-When Temptation Comes
DR14 -0.31 dB -15.32 dB 5:08 ?-It's Time for Love
DR13 -0.31 dB -15.63 dB 3:33 ?-Take a Trip to the Islands
DR13 -0.31 dB -15.19 dB 4:00 ?-I'm Not a Gambler
DR12 -1.31 dB -14.81 dB 4:50 ?-You Don't Have to Go
DR13 -1.31 dB -16.02 dB 3:38 ?-The Devil Is Doing His Work
DR11 -0.31 dB -13.53 dB 3:30 ?-Don't Burn No Bridges (With Jackie Wilson)
DR13 -1.31 dB -15.81 dB 3:32 ?-You Don't Have to Go (Edited version)
--------------------------------------------------------------------------------
Number of tracks: 17
Official DR value: DR12
Samplerate: 44100 Hz
Channels: 2
Bits per sample: 16
Bitrate: 892 kbps
Codec: FLAC
================================================================================
 
Об альбоме (сборнике)
Full title - Complete Chi-Lites On Brunswick Records Vol. 2. 2004 compilation contains 34 tracks taken from the band's second half of their fifth album, 'A Letter To Myself (Part 2)', along with their sixth, 'Chi-Lites', seventh 'Toby', & eighth albums, 'Half A Love', as well as 4 later singles for the legendary Chicago-based label. Slipcase. Edsel.

Раздаю до первых 5-ти скачавших, на раздачи не возвращаюсь...
Приватный:
Нет (DHT включён)
Размер:
957.10 Мб (1,003,591,469 байт) » файлов: 43
Участники:
0 раздают, 0 качают (0 участников всего)
Внешние участники:
5 раздают, 1 качают (6 участников всего) [ Обновить ]
Есть вопросы - пишите личное сообщение пользователю M0p94ok.
16:08
60
Нет комментариев. Ваш будет первым!