Поиск

(Jazz, Funk, Soul) [CD] Santa Fe & The Fat City Horns - The Answer - 2014, FLAC (image+.cue), lossless

(Jazz, Funk, Soul) [CD] Santa Fe & The Fat City Horns - The Answer - 2014, FLAC (image+.cue), lossless
Треклист:
Santa Fe & The Fat City Horns - The Answer
Жанр: Jazz, Funk, Soul
Носитель: CD
Страна-производитель диска (релиза): Russia, Unofficial
Год издания: 2014
Издатель (лейбл): Self-released
Номер по каталогу: CD 004
Страна исполнителя (группы): USA
Аудиокодек: FLAC (*.flac)
Тип рипа: image+.cue
Битрейт аудио: lossless
Продолжительность: 01:11:35
Источник (релизер): свой рип
Наличие сканов в содержимом раздачи: да
Треклист:
01. Fat City Sauce 1:16
02. Let the Healing Begin 4:46
03. Squeaky Wheel 4:50
04. Pieces of a Memory 5:34
05. Gree-Z 6:20
06. Dirty Work 5:37
07. Restless Mind 4:35
08. Critical Mass 6:01
09. Esta Noche 4:56
10. The Plan Man 6:50
11. Perfect World 5:22
12. Take Me Home 5:28
13. Close Enough to Taste 5:51
14. The Answer 4:10
 
Лог создания рипа
Exact Audio Copy V1.3 from 2. September 2016
Отчёт EAC об извлечении, выполненном 13. июля 2018, 17:29
Santa Fe & the Fat City Horns / The Answer
Дисковод: ASUS DRW-24B3ST Adapter: 1 ID: 0
Режим чтения : Достоверность
Использование точного потока : Да
Отключение кэша аудио : Да
Использование указателей C2 : Нет
Коррекция смещения при чтении : 6
Способность читать области Lead-in и Lead-out : Нет
Заполнение пропущенных сэмплов тишиной : Да
Удаление блоков с тишиной в начале и конце : Нет
При вычислениях CRC использовались нулевые сэмплы : Да
Интерфейс : Встроенный Win32-интерфейс для Win NT/2000
Выходной формат : Пользовательский кодировщик
Выбранный битрейт : 1024 kBit/s
Качество : Высокий
Добавление ID3-тега : Нет
Утилита сжатия : C:\Program Files (x86)\Exact Audio Copy\Flac\flac.exe
Дополнительные параметры : -V -8 -T "Date=%year%" -T "Genre=%genre%" %source%
TOC извлечённого CD
Трек | Старт | Длительность | Начальный сектор | Конечный сектор
---------------------------------------------------------------------
1 | 0:00.00 | 1:15.67 | 0 | 5691
2 | 1:15.67 | 4:46.13 | 5692 | 27154
3 | 6:02.05 | 4:49.42 | 27155 | 48871
4 | 10:51.47 | 5:33.60 | 48872 | 73906
5 | 16:25.32 | 6:20.22 | 73907 | 102428
6 | 22:45.54 | 5:36.38 | 102429 | 127666
7 | 28:22.17 | 4:34.50 | 127667 | 148266
8 | 32:56.67 | 6:00.60 | 148267 | 175326
9 | 38:57.52 | 4:56.13 | 175327 | 197539
10 | 43:53.65 | 6:49.67 | 197540 | 228281
11 | 50:43.57 | 5:22.21 | 228282 | 252452
12 | 56:06.03 | 5:28.17 | 252453 | 277069
13 | 61:34.20 | 5:50.46 | 277070 | 303365
14 | 67:24.66 | 4:10.20 | 303366 | 322135
Характеристики диапазона извлечения и сообщения об ошибках
Выбранный диапазон
Имя файла E:\Torrents-seed\Santa Fe & the Fat City Horns - 2014 - Answer\Santa Fe & the Fat City Horns - The Answer.wav
Пиковый уровень 99.8 %
Скорость извлечения 9.8 X
Качество диапазона 100.0 %
CRC теста D9B18F1B
CRC копии D9B18F1B
Копирование... OK
Ошибок не произошло
AccurateRip: сводка
Трек 1 точность не определена (достоверность 1) [F722B518], AccurateRip вернул [4B6CBF7E] (AR v2)
Трек 2 точность не определена (достоверность 1) [F1C3B42A], AccurateRip вернул [B00D2A72] (AR v2)
Трек 3 точность не определена (достоверность 1) [8722BF8E], AccurateRip вернул [B2462E15] (AR v2)
Трек 4 точность не определена (достоверность 1) [365AB202], AccurateRip вернул [23F2104F] (AR v2)
Трек 5 точность не определена (достоверность 1) [478FD2A7], AccurateRip вернул [BBAA9B99] (AR v2)
Трек 6 точность не определена (достоверность 1) [0DE72BC7], AccurateRip вернул [5BB21C84] (AR v2)
Трек 7 точность не определена (достоверность 1) [7FD7BA17], AccurateRip вернул [4DCC84E7] (AR v2)
Трек 8 точность не определена (достоверность 1) [E8306330], AccurateRip вернул [95B730D6] (AR v2)
Трек 9 точность не определена (достоверность 1) [55C71802], AccurateRip вернул [9802D901] (AR v2)
Трек 10 точность не определена (достоверность 1) [624BB9D9], AccurateRip вернул [9F6E506F] (AR v2)
Трек 11 точность не определена (достоверность 1) [275BF0D9], AccurateRip вернул [DD9C51C6] (AR v2)
Трек 12 точность не определена (достоверность 1) [8D2F59F1], AccurateRip вернул [29956420] (AR v2)
Трек 13 точность не определена (достоверность 1) [5792931D], AccurateRip вернул [6FFF9722] (AR v2)
Трек 14 точность не определена (достоверность 1) [8E2DFB3E], AccurateRip вернул [A6FDD477] (AR v2)
Ни один трек не прошёл проверки на точность
В вашей базе может быть иной вариант штамповки диска
Конец отчёта
==== Контрольная сумма отчёта 30377A1166D25FC259046714AC131C9035FF17ACA1074595CA01997A5C2CB082 ====
 
Динамический диапазон
foobar2000 1.3.17 / Dynamic Range Meter 1.1.1
log date: 2018-07-13 17:33:38
--------------------------------------------------------------------------------
Analyzed: Santa Fe & the Fat City Horns / The Answer
--------------------------------------------------------------------------------
DR Peak RMS Duration Track
--------------------------------------------------------------------------------
DR14 -0.02 dB -15.38 dB 1:16 01-Fat City Sauce
DR8 -0.01 dB -9.90 dB 4:46 02-Let the Healing Begin
DR10 -0.02 dB -11.72 dB 4:50 03-Squeaky Wheel
DR10 -0.02 dB -11.93 dB 5:34 04-Pieces of a Memory
DR10 -0.02 dB -12.43 dB 6:20 05-Gree-Z
DR9 -0.02 dB -11.53 dB 5:37 06-Dirty Work
DR11 -0.02 dB -13.33 dB 4:35 07-Restless Mind
DR10 -0.02 dB -11.75 dB 6:01 08-Critical Mass
DR9 -0.02 dB -12.28 dB 4:56 09-Esta Noche
DR10 -0.02 dB -11.91 dB 6:50 10-The Plan Man
DR9 -0.02 dB -10.79 dB 5:22 11-Perfect World
DR9 -0.02 dB -11.72 dB 5:28 12-Take Me Home
DR9 -0.02 dB -10.97 dB 5:51 13-Close Enough to Taste
DR8 -0.02 dB -10.15 dB 4:10 14-The Answer
--------------------------------------------------------------------------------
Number of tracks: 14
Official DR value: DR10
Samplerate: 44100 Hz
Channels: 2
Bits per sample: 16
Bitrate: 927 kbps
Codec: FLAC
================================================================================
 
Состав
• Alto Saxophone, Flute – Phil Wigfall
• Backing Vocals – Mike Gonzalez (2) (tracks: 2)
• Baritone Saxophone, Flute – Eric Tewalt
• Bass – Rochon Westmoreland
• Cello – Mandy Andreasen (tracks: 7, 9)
• Drums, Percussion – Jose "Pepe" Jimenez
• Guitar, Vocals – Jerry Lopez
• Keyboards – Dave Richardson (15)
• Organ B-3 – Dave Richardson (15), Jamie Hosmer (tracks: 4, 5, 10, 13)
• Percussion – Gabriel Santana Falcon
• Percussion, Vocals – Lenny Lopez (2)
• Piano – Dave Richardson (15) (tracks: 2, 4, 5, 9, 13 ), Jamie Hosmer (tracks: 7, 14)
• Tenor Saxophone – Rob Mader
• Trombone – Nathan Tanouye
• Trumpet [Lead] – Danny Falcone* (tracks: 1, 3, 4, 7, 10 to 13), Gil Kaupp (tracks: 2, 5, 6, 8, 9, 14)
• Viola – Crystal Yuan (tracks: 7, 9)
• Violin – Jennifer Lynn (tracks: 7, 9), Monique Olivas (tracks: 7, 9)
• Vocals – Lannie Counts, Tony Davich, Tyriq Johnson
• Vocals, Keyboards – Jamie Hosmer
Приватный:
Нет (DHT включён)
Размер:
500.28 Мб (524,582,733 байт) » файлов: 10
Участники:
0 раздают, 0 качают (0 участников всего)
Внешние участники:
1 раздают, 0 качают (1 участников всего) [ Обновить ]
Есть вопросы - пишите личное сообщение пользователю M0p94ok.
16:09
48
Нет комментариев. Ваш будет первым!