Поиск

(Funk, Soul) [CD] The Chi-Lites - The Complete Chi-Lites On Brunswick Volume 1 - 2004 (2CD Remastered), FLAC (tracks+.cue), lossless

(Funk, Soul) [CD] The Chi-Lites - The Complete Chi-Lites On Brunswick Volume 1 - 2004 (2CD Remastered), FLAC (tracks+.cue), lossless
Треклист:
The Chi-Lites / The Complete Chi-Lites On Brunswick Volume 1
Жанр: Funk, Soul
Носитель: CD
Страна-производитель диска (релиза): UK
Год издания: 2004
Издатель (лейбл): Edsel Records
Номер по каталогу: MEDCD 736
Страна исполнителя (группы): USA
Аудиокодек: FLAC (*.flac)
Тип рипа: tracks+.cue
Битрейт аудио: lossless
Продолжительность: 2:30:33
Источник (релизер): artmuss
Наличие сканов в содержимом раздачи: Front
 
CD1
The Early Singles
01. Love Me 2:49
02. Love Is Gone 2:59
03. (Um, Um) My Baby Loves Me 2:16
04. Price Of Love 2:31
05. Baby It's Time 2:30
1969 Give It Away
06. Give It Away 2:46
07. Let Me Be The Man My Daddy Was 3:30
08. My Whole World Ended 3:07
09. I Heard It Through The Grapevine 3:08
10. What Do I Wish For? 2:58
11. That's My Baby For You 2:07
12. I'm Gonna Make You Love Me 2:31
13. You're No Longer Part Of My Heart 3:01
14. 24 Hours Of Sadness 2:09
15. To Change My Love 2:31
16. The Twelfth Of Never 2:44
1970 I Like Your Lovin' (Do You Like Mine)
17. Are You My Woman? (Tell Me So) 3:01
18. Trouble's A' Comin' 3:18
19. I Like Your Lovin' (Do You Like Mine?) 3:19
1971 (For God's Sake) Give More Power To The People
20. Yes I'm Ready (If I Don't Get To Go) 4:18
21. We Are Neighbors 3:41
22. I Want To Pay You Back (Album Version) 4:46
23. Have You Seen Her? 5:09
24. (For God's Sake) Give More Power To The People 3:48
 
Лог создания рипа
Exact Audio Copy V0.99 prebeta 4 from 23. January 2008
EAC extraction logfile from 12. February 2010, 13:41
The Chi-Lites / The Complete The Chi-Lites on Brunswick Records - Volume 1
Used drive : PIONEER DVD-RW DVR-215 Adapter: 2 ID: 0
Read mode : Secure
Utilize accurate stream : Yes
Defeat audio cache : Yes
Make use of C2 pointers : No
Read offset correction : 48
Overread into Lead-In and Lead-Out : No
Fill up missing offset samples with silence : Yes
Delete leading and trailing silent blocks : No
Null samples used in CRC calculations : Yes
Used interface : Native Win32 interface for Win NT & 2000
Gap handling : Appended to previous track
Used output format : User Defined Encoder
Selected bitrate : 320 kBit/s
Quality : High
Add ID3 tag : No
Command line compressor : C:\Program Files (x86)\Exact Audio Copy\Flac\flac.exe
Additional command line options : -V -8 -T "artist=%a" -T "title=%t" -T "album=%g" -T "date=%y" -T "tracknumber=%n" -T "genre=%m" %s
TOC of the extracted CD
Track | Start | Length | Start sector | End sector
---------------------------------------------------------
1 | 0:00.00 | 2:49.54 | 0 | 12728
2 | 2:49.54 | 2:59.28 | 12729 | 26181
3 | 5:49.07 | 2:16.53 | 26182 | 36434
4 | 8:05.60 | 2:31.72 | 36435 | 47831
5 | 10:37.57 | 2:30.58 | 47832 | 59139
6 | 13:08.40 | 2:46.25 | 59140 | 71614
7 | 15:54.65 | 3:30.72 | 71615 | 87436
8 | 19:25.62 | 3:07.33 | 87437 | 101494
9 | 22:33.20 | 3:08.56 | 101495 | 115650
10 | 25:42.01 | 2:58.13 | 115651 | 129013
11 | 28:40.14 | 2:07.63 | 129014 | 138601
12 | 30:48.02 | 2:31.08 | 138602 | 149934
13 | 33:19.10 | 3:01.47 | 149935 | 163556
14 | 36:20.57 | 2:09.22 | 163557 | 173253
15 | 38:30.04 | 2:31.42 | 173254 | 184620
16 | 41:01.46 | 2:44.68 | 184621 | 196988
17 | 43:46.39 | 3:01.33 | 196989 | 210596
18 | 46:47.72 | 3:18.67 | 210597 | 225513
19 | 50:06.64 | 3:19.42 | 225514 | 240480
20 | 53:26.31 | 4:18.34 | 240481 | 259864
21 | 57:44.65 | 3:41.53 | 259865 | 276492
22 | 61:26.43 | 4:46.36 | 276493 | 297978
23 | 66:13.04 | 5:09.40 | 297979 | 321193
24 | 71:22.44 | 3:48.61 | 321194 | 338354
Track 1
Filename B:\Artists\The Chi-Lites\The Complete The Chi-Lites on Brunswick Records - Volume 1\Disc 1\01 - Love Me.wav
Pre-gap length 0:00:02.00
Peak level 86.0 %
Track quality 100.0 %
Test CRC 96E03BF7
Copy CRC 96E03BF7
Track not present in AccurateRip database
Copy OK
Track 2
Filename B:\Artists\The Chi-Lites\The Complete The Chi-Lites on Brunswick Records - Volume 1\Disc 1\02 - Love Is Gone.wav
Pre-gap length 0:00:02.54
Peak level 86.0 %
Track quality 100.0 %
Test CRC 92E3FAA7
Copy CRC 92E3FAA7
Track not present in AccurateRip database
Copy OK
Track 3
Filename B:\Artists\The Chi-Lites\The Complete The Chi-Lites on Brunswick Records - Volume 1\Disc 1\03 - (Um, Um) My Baby Loves Me.wav
Pre-gap length 0:00:02.54
Peak level 86.0 %
Track quality 100.0 %
Test CRC BF037EC8
Copy CRC BF037EC8
Track not present in AccurateRip database
Copy OK
Track 4
Filename B:\Artists\The Chi-Lites\The Complete The Chi-Lites on Brunswick Records - Volume 1\Disc 1\04 - Price Of Love.wav
Pre-gap length 0:00:02.54
Peak level 96.5 %
Track quality 100.0 %
Test CRC CBE990C1
Copy CRC CBE990C1
Track not present in AccurateRip database
Copy OK
Track 5
Filename B:\Artists\The Chi-Lites\The Complete The Chi-Lites on Brunswick Records - Volume 1\Disc 1\05 - Baby It's Time.wav
Pre-gap length 0:00:02.54
Peak level 96.5 %
Track quality 99.9 %
Test CRC 0BC8266B
Copy CRC 0BC8266B
Track not present in AccurateRip database
Copy OK
Track 6
Filename B:\Artists\The Chi-Lites\The Complete The Chi-Lites on Brunswick Records - Volume 1\Disc 1\06 - Give It Away.wav
Pre-gap length 0:00:03.53
Peak level 96.4 %
Track quality 100.0 %
Test CRC 9127DA3D
Copy CRC 9127DA3D
Track not present in AccurateRip database
Copy OK
Track 7
Filename B:\Artists\The Chi-Lites\The Complete The Chi-Lites on Brunswick Records - Volume 1\Disc 1\07 - Let Me Be The Man My Daddy Was.wav
Pre-gap length 0:00:02.54
Peak level 96.5 %
Track quality 100.0 %
Test CRC 59663369
Copy CRC 59663369
Track not present in AccurateRip database
Copy OK
Track 8
Filename B:\Artists\The Chi-Lites\The Complete The Chi-Lites on Brunswick Records - Volume 1\Disc 1\08 - My Whole World Ended.wav
Pre-gap length 0:00:02.54
Peak level 96.5 %
Track quality 100.0 %
Test CRC F82BEFAC
Copy CRC F82BEFAC
Track not present in AccurateRip database
Copy OK
Track 9
Filename B:\Artists\The Chi-Lites\The Complete The Chi-Lites on Brunswick Records - Volume 1\Disc 1\09 - I Heard It Through The Grapevine.wav
Pre-gap length 0:00:02.54
Peak level 96.5 %
Track quality 100.0 %
Test CRC 88DCCCAD
Copy CRC 88DCCCAD
Track not present in AccurateRip database
Copy OK
Track 10
Filename B:\Artists\The Chi-Lites\The Complete The Chi-Lites on Brunswick Records - Volume 1\Disc 1\10 - What Do I Wish For.wav
Pre-gap length 0:00:02.54
Peak level 86.0 %
Track quality 100.0 %
Test CRC 96DF7B5F
Copy CRC 96DF7B5F
Track not present in AccurateRip database
Copy OK
Track 11
Filename B:\Artists\The Chi-Lites\The Complete The Chi-Lites on Brunswick Records - Volume 1\Disc 1\11 - That's My Baby For You.wav
Pre-gap length 0:00:02.54
Peak level 96.5 %
Track quality 99.9 %
Test CRC 9E82A023
Copy CRC 9E82A023
Track not present in AccurateRip database
Copy OK
Track 12
Filename B:\Artists\The Chi-Lites\The Complete The Chi-Lites on Brunswick Records - Volume 1\Disc 1\12 - I'm Gonna Make You Love Me.wav
Pre-gap length 0:00:02.54
Peak level 96.4 %
Track quality 99.9 %
Test CRC 7AE4CA97
Copy CRC 7AE4CA97
Track not present in AccurateRip database
Copy OK
Track 13
Filename B:\Artists\The Chi-Lites\The Complete The Chi-Lites on Brunswick Records - Volume 1\Disc 1\13 - You're No Longer Part Of My Heart.wav
Pre-gap length 0:00:02.54
Peak level 96.4 %
Track quality 99.9 %
Test CRC BFD705FE
Copy CRC BFD705FE
Track not present in AccurateRip database
Copy OK
Track 14
Filename B:\Artists\The Chi-Lites\The Complete The Chi-Lites on Brunswick Records - Volume 1\Disc 1\14 - 24 Hours Of Sadness.wav
Pre-gap length 0:00:02.54
Peak level 96.4 %
Track quality 100.0 %
Test CRC 95A91E13
Copy CRC 95A91E13
Track not present in AccurateRip database
Copy OK
Track 15
Filename B:\Artists\The Chi-Lites\The Complete The Chi-Lites on Brunswick Records - Volume 1\Disc 1\15 - To Change My Love.wav
Pre-gap length 0:00:02.54
Peak level 96.4 %
Track quality 100.0 %
Test CRC B4FAAD8D
Copy CRC B4FAAD8D
Track not present in AccurateRip database
Copy OK
Track 16
Filename B:\Artists\The Chi-Lites\The Complete The Chi-Lites on Brunswick Records - Volume 1\Disc 1\16 - The Twelth Of Never.wav
Pre-gap length 0:00:02.54
Peak level 96.5 %
Track quality 100.0 %
Test CRC A3D2493D
Copy CRC A3D2493D
Track not present in AccurateRip database
Copy OK
Track 17
Filename B:\Artists\The Chi-Lites\The Complete The Chi-Lites on Brunswick Records - Volume 1\Disc 1\17 - Are You My Woman.wav
Pre-gap length 0:00:03.54
Peak level 96.4 %
Track quality 100.0 %
Test CRC 763433DE
Copy CRC 763433DE
Track not present in AccurateRip database
Copy OK
Track 18
Filename B:\Artists\The Chi-Lites\The Complete The Chi-Lites on Brunswick Records - Volume 1\Disc 1\18 - Trouble's A Comin'.wav
Pre-gap length 0:00:02.54
Peak level 86.0 %
Track quality 99.9 %
Test CRC 72D683F2
Copy CRC 72D683F2
Track not present in AccurateRip database
Copy OK
Track 19
Filename B:\Artists\The Chi-Lites\The Complete The Chi-Lites on Brunswick Records - Volume 1\Disc 1\19 - I Like Your Lovin' (Do You Like Mine ).wav
Pre-gap length 0:00:02.54
Peak level 96.5 %
Track quality 99.9 %
Test CRC FE87925C
Copy CRC FE87925C
Track not present in AccurateRip database
Copy OK
Track 20
Filename B:\Artists\The Chi-Lites\The Complete The Chi-Lites on Brunswick Records - Volume 1\Disc 1\20 - Yes I'm Ready (If I Don't Get To Go).wav
Pre-gap length 0:00:03.54
Peak level 96.4 %
Track quality 100.0 %
Test CRC FC5737AF
Copy CRC FC5737AF
Track not present in AccurateRip database
Copy OK
Track 21
Filename B:\Artists\The Chi-Lites\The Complete The Chi-Lites on Brunswick Records - Volume 1\Disc 1\21 - We Are Neighbors.wav
Pre-gap length 0:00:02.54
Peak level 96.4 %
Track quality 100.0 %
Test CRC EC2561D9
Copy CRC EC2561D9
Track not present in AccurateRip database
Copy OK
Track 22
Filename B:\Artists\The Chi-Lites\The Complete The Chi-Lites on Brunswick Records - Volume 1\Disc 1\22 - I Want To Pay You Back (Album Version).wav
Pre-gap length 0:00:02.54
Peak level 96.5 %
Track quality 100.0 %
Test CRC CC674148
Copy CRC CC674148
Track not present in AccurateRip database
Copy OK
Track 23
Filename B:\Artists\The Chi-Lites\The Complete The Chi-Lites on Brunswick Records - Volume 1\Disc 1\23 - Have You Seen Her .wav
Pre-gap length 0:00:02.54
Peak level 96.4 %
Track quality 100.0 %
Test CRC 451347FA
Copy CRC 451347FA
Track not present in AccurateRip database
Copy OK
Track 24
Filename B:\Artists\The Chi-Lites\The Complete The Chi-Lites on Brunswick Records - Volume 1\Disc 1\24 - (For God's Sake) Give More Power To The People.wav
Pre-gap length 0:00:02.54
Peak level 96.4 %
Track quality 99.9 %
Test CRC 75A95229
Copy CRC 75A95229
Track not present in AccurateRip database
Copy OK
None of the tracks are present in the AccurateRip database
No errors occurred
End of status report
 
Содержание индексной карты (.CUE)
REM GENRE Soul
REM DATE 2004
REM DISCID 5D119F18
REM COMMENT "ExactAudioCopy v0.99pb4"
PERFORMER "The Chi-Lites"
TITLE "The Complete The Chi-Lites on Brunswick Records - Volume 1 "
FILE "01 - Love Me.wav" WAVE
TRACK 01 AUDIO
TITLE "Love Me"
PERFORMER "The Chi-Lites"
INDEX 01 00:00:00
TRACK 02 AUDIO
TITLE "Love Is Gone"
PERFORMER "The Chi-Lites"
INDEX 00 02:47:13
FILE "02 - Love Is Gone.wav" WAVE
INDEX 01 00:00:00
TRACK 03 AUDIO
TITLE "(Um, Um) My Baby Loves Me"
PERFORMER "The Chi-Lites"
INDEX 00 02:56:62
FILE "03 - (Um, Um) My Baby Loves Me.wav" WAVE
INDEX 01 00:00:00
TRACK 04 AUDIO
TITLE "Price Of Love"
PERFORMER "The Chi-Lites"
INDEX 00 02:14:12
FILE "04 - Price Of Love.wav" WAVE
INDEX 01 00:00:00
TRACK 05 AUDIO
TITLE "Baby It's Time"
PERFORMER "The Chi-Lites"
INDEX 00 02:29:31
FILE "05 - Baby It's Time.wav" WAVE
INDEX 01 00:00:00
TRACK 06 AUDIO
TITLE "Give It Away"
PERFORMER "The Chi-Lites"
INDEX 00 02:27:18
FILE "06 - Give It Away.wav" WAVE
INDEX 01 00:00:00
TRACK 07 AUDIO
TITLE "Let Me Be The Man My Daddy Was"
PERFORMER "The Chi-Lites"
INDEX 00 02:43:59
FILE "07 - Let Me Be The Man My Daddy Was.wav" WAVE
INDEX 01 00:00:00
TRACK 08 AUDIO
TITLE "My Whole World Ended"
PERFORMER "The Chi-Lites"
INDEX 00 03:28:31
FILE "08 - My Whole World Ended.wav" WAVE
INDEX 01 00:00:00
TRACK 09 AUDIO
TITLE "I Heard It Through The Grapevine"
PERFORMER "The Chi-Lites"
INDEX 00 03:04:67
FILE "09 - I Heard It Through The Grapevine.wav" WAVE
INDEX 01 00:00:00
TRACK 10 AUDIO
TITLE "What Do I Wish For"
PERFORMER "The Chi-Lites"
INDEX 00 03:06:15
FILE "10 - What Do I Wish For.wav" WAVE
INDEX 01 00:00:00
TRACK 11 AUDIO
TITLE "That's My Baby For You"
PERFORMER "The Chi-Lites"
INDEX 00 02:55:47
FILE "11 - That's My Baby For You.wav" WAVE
INDEX 01 00:00:00
TRACK 12 AUDIO
TITLE "I'm Gonna Make You Love Me"
PERFORMER "The Chi-Lites"
INDEX 00 02:05:22
FILE "12 - I'm Gonna Make You Love Me.wav" WAVE
INDEX 01 00:00:00
TRACK 13 AUDIO
TITLE "You're No Longer Part Of My Heart"
PERFORMER "The Chi-Lites"
INDEX 00 02:28:42
FILE "13 - You're No Longer Part Of My Heart.wav" WAVE
INDEX 01 00:00:00
TRACK 14 AUDIO
TITLE "24 Hours Of Sadness"
PERFORMER "The Chi-Lites"
INDEX 00 02:59:06
FILE "14 - 24 Hours Of Sadness.wav" WAVE
INDEX 01 00:00:00
TRACK 15 AUDIO
TITLE "To Change My Love"
PERFORMER "The Chi-Lites"
INDEX 00 02:06:56
FILE "15 - To Change My Love.wav" WAVE
INDEX 01 00:00:00
TRACK 16 AUDIO
TITLE "The Twelth Of Never"
PERFORMER "The Chi-Lites"
INDEX 00 02:29:01
FILE "16 - The Twelth Of Never.wav" WAVE
INDEX 01 00:00:00
TRACK 17 AUDIO
TITLE "Are You My Woman"
PERFORMER "The Chi-Lites"
INDEX 00 02:41:27
FILE "17 - Are You My Woman.wav" WAVE
INDEX 01 00:00:00
TRACK 18 AUDIO
TITLE "Trouble's A Comin'"
PERFORMER "The Chi-Lites"
INDEX 00 02:58:67
FILE "18 - Trouble's A Comin'.wav" WAVE
INDEX 01 00:00:00
TRACK 19 AUDIO
TITLE "I Like Your Lovin' (Do You Like Mine?)"
PERFORMER "The Chi-Lites"
INDEX 00 03:16:26
FILE "19 - I Like Your Lovin' (Do You Like Mine ).wav" WAVE
INDEX 01 00:00:00
TRACK 20 AUDIO
TITLE "Yes I'm Ready (If I Don't Get To Go)"
PERFORMER "The Chi-Lites"
INDEX 00 03:16:01
FILE "20 - Yes I'm Ready (If I Don't Get To Go).wav" WAVE
INDEX 01 00:00:00
TRACK 21 AUDIO
TITLE "We Are Neighbors"
PERFORMER "The Chi-Lites"
INDEX 00 04:15:68
FILE "21 - We Are Neighbors.wav" WAVE
INDEX 01 00:00:00
TRACK 22 AUDIO
TITLE "I Want To Pay You Back (Album Version)"
PERFORMER "The Chi-Lites"
INDEX 00 03:39:12
FILE "22 - I Want To Pay You Back (Album Version).wav" WAVE
INDEX 01 00:00:00
TRACK 23 AUDIO
TITLE "Have You Seen Her?"
PERFORMER "The Chi-Lites"
INDEX 00 04:43:70
FILE "23 - Have You Seen Her .wav" WAVE
INDEX 01 00:00:00
TRACK 24 AUDIO
TITLE "(For God's Sake) Give More Power To The People"
PERFORMER "The Chi-Lites"
INDEX 00 05:06:74
FILE "24 - (For God's Sake) Give More Power To The People.wav" WAVE
INDEX 01 00:00:00
 
DR Log
foobar2000 1.1.10 / Dynamic Range Meter 1.1.1
log date: 2018-07-12 11:22:58
--------------------------------------------------------------------------------
Analyzed: The Chi-Lites / The Complete The Chi-Lites on Brunswick Records - Volume 1
--------------------------------------------------------------------------------
DR Peak RMS Duration Track
--------------------------------------------------------------------------------
DR10 -1.31 dB -12.57 dB 2:50 ?-Love Me
DR9 -1.31 dB -12.22 dB 2:59 ?-Love Is Gone
DR9 -1.31 dB -11.83 dB 2:17 ?-(Um, Um) My Baby Loves Me
DR8 -0.31 dB -9.31 dB 2:32 ?-Price Of Love
DR9 -0.31 dB -10.85 dB 2:31 ?-Baby It's Time
DR10 -0.31 dB -12.37 dB 2:46 ?-Give It Away
DR9 -0.31 dB -11.11 dB 3:31 ?-Let Me Be The Man My Daddy Was
DR10 -0.31 dB -13.23 dB 3:07 ?-My Whole World Ended
DR9 -0.31 dB -10.86 dB 3:09 ?-I Heard It Through The Grapevine
DR11 -1.31 dB -14.23 dB 2:58 ?-What Do I Wish For
DR10 -0.31 dB -12.55 dB 2:08 ?-That's My Baby For You
DR11 -0.31 dB -13.30 dB 2:31 ?-I'm Gonna Make You Love Me
DR10 -0.31 dB -13.25 dB 3:02 ?-You're No Longer Part Of My Heart
DR11 -0.31 dB -12.74 dB 2:09 ?-24 Hours Of Sadness
DR11 -0.31 dB -13.99 dB 2:32 ?-To Change My Love
DR10 -0.31 dB -13.03 dB 2:45 ?-The Twelth Of Never
DR9 -0.31 dB -11.50 dB 3:01 ?-Are You My Woman
DR10 -1.31 dB -12.59 dB 3:19 ?-Trouble's A Comin'
DR10 -0.31 dB -11.94 dB 3:20 ?-I Like Your Lovin' (Do You Like Mine?)
DR10 -0.31 dB -13.34 dB 4:18 ?-Yes I'm Ready (If I Don't Get To Go)
DR11 -0.32 dB -13.14 dB 3:42 ?-We Are Neighbors
DR11 -0.31 dB -12.86 dB 4:46 ?-I Want To Pay You Back (Album Version)
DR10 -0.31 dB -11.87 dB 5:10 ?-Have You Seen Her?
DR12 -0.31 dB -14.16 dB 3:49 ?-(For God's Sake) Give More Power To The People
--------------------------------------------------------------------------------
Number of tracks: 24
Official DR value: DR10
Samplerate: 44100 Hz
Channels: 2
Bits per sample: 16
Bitrate: 993 kbps
Codec: FLAC
================================================================================
 
CD2
1971 (For God's Sake) Give More Power To The People
01. Love Uprising 2:28
02. You Got Me Walkin' 2:40
Bonus Track
03. I Want To Pay You Back (Single Version) 2:54
1972 A Lonely Man
04. Oh Girl 3:43
05. Living In The Footsteps Of Another Man 2:55
06. Love Is 4:36
07. Being In Love 3:50
08. A Lonely Man 6:16
09. The Man And The Woman (The Boy And The Girl) 4:04
10. Ain't Too Much Of Nothin' 3:34
11. Inner City Blues (Make Me Wanna Holler) 5:08
12. The Coldest Days Of My Life 8:35
1973 A Letter To Myself Part 1
13. A Letter To Myself 5:30
14. Too Late To Turn Back Now 4:28
15. Just Two Teenage Kids (Still In Love) 6:00
16. Sally 3:37
17. Someone Else's Arms 4:11
 
Лог создания рипа
Exact Audio Copy V0.99 prebeta 4 from 23. January 2008
EAC extraction logfile from 12. February 2010, 14:12
The Chi-Lites / The Complete The Chi-Lites on Brunswick Records - Volume 1
Used drive : PIONEER DVD-RW DVR-215 Adapter: 2 ID: 0
Read mode : Secure
Utilize accurate stream : Yes
Defeat audio cache : Yes
Make use of C2 pointers : No
Read offset correction : 48
Overread into Lead-In and Lead-Out : No
Fill up missing offset samples with silence : Yes
Delete leading and trailing silent blocks : No
Null samples used in CRC calculations : Yes
Used interface : Native Win32 interface for Win NT & 2000
Gap handling : Appended to previous track
Used output format : User Defined Encoder
Selected bitrate : 320 kBit/s
Quality : High
Add ID3 tag : No
Command line compressor : C:\Program Files (x86)\Exact Audio Copy\Flac\flac.exe
Additional command line options : -V -8 -T "artist=%a" -T "title=%t" -T "album=%g" -T "date=%y" -T "tracknumber=%n" -T "genre=%m" %s
TOC of the extracted CD
Track | Start | Length | Start sector | End sector
---------------------------------------------------------
1 | 0:00.00 | 2:31.52 | 0 | 11376
2 | 2:31.52 | 2:43.57 | 11377 | 23658
3 | 5:15.34 | 2:57.26 | 23659 | 36959
4 | 8:12.60 | 3:46.04 | 36960 | 53913
5 | 11:58.64 | 2:58.54 | 53914 | 67317
6 | 14:57.43 | 4:39.38 | 67318 | 88280
7 | 19:37.06 | 3:52.63 | 88281 | 105743
8 | 23:29.69 | 6:18.67 | 105744 | 134160
9 | 29:48.61 | 4:07.35 | 134161 | 152720
10 | 33:56.21 | 3:36.59 | 152721 | 168979
11 | 37:33.05 | 5:11.20 | 168980 | 192324
12 | 42:44.25 | 8:38.15 | 192325 | 231189
13 | 51:22.40 | 5:32.61 | 231190 | 256150
14 | 56:55.26 | 4:29.18 | 256151 | 276343
15 | 61:24.44 | 6:03.30 | 276344 | 303598
16 | 67:27.74 | 3:40.16 | 303599 | 320114
17 | 71:08.15 | 4:13.62 | 320115 | 339151
Track 1
Filename B:\Artists\The Chi-Lites\The Complete The Chi-Lites on Brunswick Records - Volume 1\Disc 2\01 - Love Uprising.wav
Pre-gap length 0:00:02.00
Peak level 96.4 %
Track quality 100.0 %
Test CRC BA58681B
Copy CRC BA58681B
Track not present in AccurateRip database
Copy OK
Track 2
Filename B:\Artists\The Chi-Lites\The Complete The Chi-Lites on Brunswick Records - Volume 1\Disc 2\02 - You Got Me Walkin'.wav
Pre-gap length 0:00:02.54
Peak level 96.4 %
Track quality 100.0 %
Test CRC FD7A0916
Copy CRC FD7A0916
Track not present in AccurateRip database
Copy OK
Track 3
Filename B:\Artists\The Chi-Lites\The Complete The Chi-Lites on Brunswick Records - Volume 1\Disc 2\03 - I Want To Pay You Back (single version).wav
Pre-gap length 0:00:02.54
Peak level 86.1 %
Track quality 100.0 %
Test CRC 3BE38C70
Copy CRC 3BE38C70
Track not present in AccurateRip database
Copy OK
Track 4
Filename B:\Artists\The Chi-Lites\The Complete The Chi-Lites on Brunswick Records - Volume 1\Disc 2\04 - Oh Girl.wav
Pre-gap length 0:00:02.54
Peak level 96.4 %
Track quality 100.0 %
Test CRC C39D1A11
Copy CRC C39D1A11
Track not present in AccurateRip database
Copy OK
Track 5
Filename B:\Artists\The Chi-Lites\The Complete The Chi-Lites on Brunswick Records - Volume 1\Disc 2\05 - Living In The Footsteps Of Another Man.wav
Pre-gap length 0:00:02.54
Peak level 96.5 %
Track quality 100.0 %
Test CRC 4CCA5297
Copy CRC 4CCA5297
Track not present in AccurateRip database
Copy OK
Track 6
Filename B:\Artists\The Chi-Lites\The Complete The Chi-Lites on Brunswick Records - Volume 1\Disc 2\06 - Love Is.wav
Pre-gap length 0:00:02.54
Peak level 85.7 %
Track quality 100.0 %
Test CRC 0F2E97D1
Copy CRC 0F2E97D1
Track not present in AccurateRip database
Copy OK
Track 7
Filename B:\Artists\The Chi-Lites\The Complete The Chi-Lites on Brunswick Records - Volume 1\Disc 2\07 - Being In Love.wav
Pre-gap length 0:00:02.54
Peak level 96.5 %
Track quality 100.0 %
Test CRC 5DDC82A6
Copy CRC 5DDC82A6
Track not present in AccurateRip database
Copy OK
Track 8
Filename B:\Artists\The Chi-Lites\The Complete The Chi-Lites on Brunswick Records - Volume 1\Disc 2\08 - A Lonely Man.wav
Pre-gap length 0:00:02.54
Peak level 96.5 %
Track quality 99.9 %
Test CRC B507AA83
Copy CRC B507AA83
Track not present in AccurateRip database
Copy OK
Track 9
Filename B:\Artists\The Chi-Lites\The Complete The Chi-Lites on Brunswick Records - Volume 1\Disc 2\09 - The Man And The Woman (The Boy And The Girl).wav
Pre-gap length 0:00:02.54
Peak level 96.4 %
Track quality 100.0 %
Test CRC FA30CC73
Copy CRC FA30CC73
Track not present in AccurateRip database
Copy OK
Track 10
Filename B:\Artists\The Chi-Lites\The Complete The Chi-Lites on Brunswick Records - Volume 1\Disc 2\10 - Ain't Too Much Of Nothin'.wav
Pre-gap length 0:00:02.54
Peak level 86.0 %
Track quality 100.0 %
Test CRC F2BDDE79
Copy CRC F2BDDE79
Track not present in AccurateRip database
Copy OK
Track 11
Filename B:\Artists\The Chi-Lites\The Complete The Chi-Lites on Brunswick Records - Volume 1\Disc 2\11 - Inner City Blues (Make Me Wanna Holler).wav
Pre-gap length 0:00:02.54
Peak level 96.4 %
Track quality 100.0 %
Test CRC EA0FA50D
Copy CRC EA0FA50D
Track not present in AccurateRip database
Copy OK
Track 12
Filename B:\Artists\The Chi-Lites\The Complete The Chi-Lites on Brunswick Records - Volume 1\Disc 2\12 - The Coldest Days Of My Life.wav
Pre-gap length 0:00:02.54
Peak level 85.9 %
Track quality 100.0 %
Test CRC 6CB592E6
Copy CRC 6CB592E6
Track not present in AccurateRip database
Copy OK
Track 13
Filename B:\Artists\The Chi-Lites\The Complete The Chi-Lites on Brunswick Records - Volume 1\Disc 2\13 - A Letter To Myself.wav
Pre-gap length 0:00:02.54
Peak level 96.4 %
Track quality 100.0 %
Test CRC 5C5C617F
Copy CRC 5C5C617F
Track not present in AccurateRip database
Copy OK
Track 14
Filename B:\Artists\The Chi-Lites\The Complete The Chi-Lites on Brunswick Records - Volume 1\Disc 2\14 - Too Late To Turn Back Now.wav
Pre-gap length 0:00:02.54
Peak level 96.5 %
Track quality 100.0 %
Test CRC 7FB619AC
Copy CRC 7FB619AC
Track not present in AccurateRip database
Copy OK
Track 15
Filename B:\Artists\The Chi-Lites\The Complete The Chi-Lites on Brunswick Records - Volume 1\Disc 2\15 - Just Two Teenage Kids (Still In Love).wav
Pre-gap length 0:00:02.54
Peak level 96.4 %
Track quality 100.0 %
Test CRC 5F11D91C
Copy CRC 5F11D91C
Track not present in AccurateRip database
Copy OK
Track 16
Filename B:\Artists\The Chi-Lites\The Complete The Chi-Lites on Brunswick Records - Volume 1\Disc 2\16 - Sally.wav
Pre-gap length 0:00:02.54
Peak level 96.5 %
Track quality 100.0 %
Test CRC E53DA779
Copy CRC E53DA779
Track not present in AccurateRip database
Copy OK
Track 17
Filename B:\Artists\The Chi-Lites\The Complete The Chi-Lites on Brunswick Records - Volume 1\Disc 2\17 - Someone Else's Arms.wav
Pre-gap length 0:00:02.54
Peak level 96.4 %
Track quality 100.0 %
Test CRC 82293552
Copy CRC 82293552
Track not present in AccurateRip database
Copy OK
None of the tracks are present in the AccurateRip database
No errors occurred
End of status report
 
Содержание индексной карты (.CUE)
REM GENRE Soul
REM DATE 2004
REM DISCID F511AA11
REM COMMENT "ExactAudioCopy v0.99pb4"
PERFORMER "The Chi-Lites"
TITLE "The Complete The Chi-Lites on Brunswick Records - Volume 1"
FILE "01 - Love Uprising.wav" WAVE
TRACK 01 AUDIO
TITLE "Love Uprising"
PERFORMER "The Chi-Lites"
INDEX 01 00:00:00
TRACK 02 AUDIO
TITLE "You Got Me Walkin'"
PERFORMER "The Chi-Lites"
INDEX 00 02:29:11
FILE "02 - You Got Me Walkin'.wav" WAVE
INDEX 01 00:00:00
TRACK 03 AUDIO
TITLE "I Want To Pay You Back (single version)"
PERFORMER "The Chi-Lites"
INDEX 00 02:41:16
FILE "03 - I Want To Pay You Back (single version).wav" WAVE
INDEX 01 00:00:00
TRACK 04 AUDIO
TITLE "Oh Girl"
PERFORMER "The Chi-Lites"
INDEX 00 02:54:60
FILE "04 - Oh Girl.wav" WAVE
INDEX 01 00:00:00
TRACK 05 AUDIO
TITLE "Living In The Footsteps Of Another Man"
PERFORMER "The Chi-Lites"
INDEX 00 03:43:38
FILE "05 - Living In The Footsteps Of Another Man.wav" WAVE
INDEX 01 00:00:00
TRACK 06 AUDIO
TITLE "Love Is"
PERFORMER "The Chi-Lites"
INDEX 00 02:56:13
FILE "06 - Love Is.wav" WAVE
INDEX 01 00:00:00
TRACK 07 AUDIO
TITLE "Being In Love"
PERFORMER "The Chi-Lites"
INDEX 00 04:36:72
FILE "07 - Being In Love.wav" WAVE
INDEX 01 00:00:00
TRACK 08 AUDIO
TITLE "A Lonely Man"
PERFORMER "The Chi-Lites"
INDEX 00 03:50:22
FILE "08 - A Lonely Man.wav" WAVE
INDEX 01 00:00:00
TRACK 09 AUDIO
TITLE "The Man And The Woman (The Boy And The Girl)"
PERFORMER "The Chi-Lites"
INDEX 00 06:16:26
FILE "09 - The Man And The Woman (The Boy And The Girl).wav" WAVE
INDEX 01 00:00:00
TRACK 10 AUDIO
TITLE "Ain't Too Much Of Nothin'"
PERFORMER "The Chi-Lites"
INDEX 00 04:04:69
FILE "10 - Ain't Too Much Of Nothin'.wav" WAVE
INDEX 01 00:00:00
TRACK 11 AUDIO
TITLE "Inner City Blues (Make Me Wanna Holler)"
PERFORMER "The Chi-Lites"
INDEX 00 03:34:18
FILE "11 - Inner City Blues (Make Me Wanna Holler).wav" WAVE
INDEX 01 00:00:00
TRACK 12 AUDIO
TITLE "The Coldest Days Of My Life"
PERFORMER "The Chi-Lites"
INDEX 00 05:08:54
FILE "12 - The Coldest Days Of My Life.wav" WAVE
INDEX 01 00:00:00
TRACK 13 AUDIO
TITLE "A Letter To Myself"
PERFORMER "The Chi-Lites"
INDEX 00 08:35:49
FILE "13 - A Letter To Myself.wav" WAVE
INDEX 01 00:00:00
TRACK 14 AUDIO
TITLE "Too Late To Turn Back Now"
PERFORMER "The Chi-Lites"
INDEX 00 05:30:20
FILE "14 - Too Late To Turn Back Now.wav" WAVE
INDEX 01 00:00:00
TRACK 15 AUDIO
TITLE "Just Two Teenage Kids (Still In Love)"
PERFORMER "The Chi-Lites"
INDEX 00 04:26:52
FILE "15 - Just Two Teenage Kids (Still In Love).wav" WAVE
INDEX 01 00:00:00
TRACK 16 AUDIO
TITLE "Sally"
PERFORMER "The Chi-Lites"
INDEX 00 06:00:64
FILE "16 - Sally.wav" WAVE
INDEX 01 00:00:00
TRACK 17 AUDIO
TITLE "Someone Else's Arms"
PERFORMER "The Chi-Lites"
INDEX 00 03:37:50
FILE "17 - Someone Else's Arms.wav" WAVE
INDEX 01 00:00:00
 
DR Log
foobar2000 1.1.10 / Dynamic Range Meter 1.1.1
log date: 2018-07-12 11:37:03
--------------------------------------------------------------------------------
Analyzed: The Chi-Lites / The Complete The Chi-Lites on Brunswick Records - Volume 1
--------------------------------------------------------------------------------
DR Peak RMS Duration Track
--------------------------------------------------------------------------------
DR12 -0.31 dB -14.04 dB 2:32 ?-Love Uprising
DR11 -0.31 dB -13.97 dB 2:44 ?-You Got Me Walkin'
DR10 -1.30 dB -12.65 dB 2:57 ?-I Want To Pay You Back (single version)
DR11 -0.31 dB -13.52 dB 3:46 ?-Oh Girl
DR11 -0.30 dB -12.98 dB 2:59 ?-Living In The Footsteps Of Another Man
DR10 -1.33 dB -14.40 dB 4:40 ?-Love Is
DR10 -0.31 dB -12.02 dB 3:53 ?-Being In Love
DR10 -0.31 dB -12.43 dB 6:19 ?-A Lonely Man
DR11 -0.31 dB -12.71 dB 4:07 ?-The Man And The Woman (The Boy And The Girl)
DR11 -1.31 dB -15.19 dB 3:37 ?-Ain't Too Much Of Nothin'
DR11 -0.31 dB -13.20 dB 5:11 ?-Inner City Blues (Make Me Wanna Holler)
DR11 -1.31 dB -14.93 dB 8:38 ?-The Coldest Days Of My Life
DR12 -0.31 dB -14.82 dB 5:33 ?-A Letter To Myself
DR11 -0.31 dB -13.40 dB 4:29 ?-Too Late To Turn Back Now
DR11 -0.31 dB -13.62 dB 6:03 ?-Just Two Teenage Kids (Still In Love)
DR11 -0.31 dB -13.88 dB 3:40 ?-Sally
DR12 -0.31 dB -15.34 dB 4:14 ?-Someone Else's Arms
--------------------------------------------------------------------------------
Number of tracks: 17
Official DR value: DR11
Samplerate: 44100 Hz
Channels: 2
Bits per sample: 16
Bitrate: 826 kbps
Codec: FLAC
================================================================================
 
Об альбоме (сборнике)
Full title - Complete Chi-Lites On Brunswick Records Vol. 1. 2004 compilation featuring 41 tracks including 1 bonus track, 'I Want To Pay You Back' (Single Version), all of the band's first four albums, 'Give It Away', 'I Like Your Lovin' (Do You Like Me)', '(For God's Sake) Give More Power To The People', & 'A Lonely Man', along with side one of their fifth, 'A Letter To Myself', & five non-LP early single sides for the legendary Chicago-based label. Slipcase. Edsel.

Раздаю до первых 5-ти скачавших, на раздачи не возвращаюсь...
Приватный:
Нет (DHT включён)
Размер:
921.43 Мб (966,190,464 байт) » файлов: 52
Участники:
0 раздают, 0 качают (0 участников всего)
Внешние участники:
5 раздают, 1 качают (6 участников всего) [ Обновить ]
Есть вопросы - пишите личное сообщение пользователю M0p94ok.
16:07
65
Нет комментариев. Ваш будет первым!