Поиск

(Funk, Soul) [CD] The Chi-Lites - Heavenly Body / Me And You - 2011, FLAC (tracks+.cue), lossless

(Funk, Soul) [CD] The Chi-Lites - Heavenly Body / Me And You - 2011, FLAC (tracks+.cue), lossless
Треклист:
The Chi-Lites / Heavenly Body / Me And You
Жанр: Funk, Soul
Носитель: CD
Страна-производитель диска (релиза): UK
Год издания: 2011
Издатель (лейбл): Expansion
Номер по каталогу: EXP2CD11
Страна исполнителя (группы): USA
Аудиокодек: FLAC (*.flac)
Тип рипа: tracks+.cue
Битрейт аудио: lossless
Продолжительность: 1:19:12
Источник (релизер): artmuss
Наличие сканов в содержимом раздачи: да
Треклист:
1980 Heavenly Body
01 Heavenly Body 4:25
02 Strung Out 3:25
03 Round & Round 4:13
04 Love Shock 5:15
05 Have You Seen Her 5:29
06 All I Want To Do Is Make Love To You 4:07
07 Give Me A Dream 4:03
08 Super Mad (About You Baby) 4:25
1981 Me And You
09 Me And You 3:25
10 Tell Me Where It Hurts 4:02
11 Whole Lot Of Good Lovin' 3:45
12 Oh Girl 4:46
13 Get Down With Me 4:21
14 Try My Side (Of Love) 4:44
15 Hot On A Thing (Called Love) 3:58
16 Never Speak To A Stranger 5:21
17 Try My Side (Of Love) (12" Extended Mix) 5:56
 
Лог создания рипа
Exact Audio Copy V1.0 beta 1 from 15. November 2010
EAC extraction logfile from 16. April 2011, 13:25
The Chi-Lites / Heavenly Body - Me And You
Used drive : Optiarc DVD RW AD-7590S Adapter: 2 ID: 0
Read mode : Secure
Utilize accurate stream : Yes
Defeat audio cache : Yes
Make use of C2 pointers : No
Read offset correction : 48
Overread into Lead-In and Lead-Out : No
Fill up missing offset samples with silence : Yes
Delete leading and trailing silent blocks : No
Null samples used in CRC calculations : Yes
Used interface : Native Win32 interface for Win NT & 2000
Gap handling : Appended to previous track
Used output format : User Defined Encoder
Selected bitrate : 768 kBit/s
Quality : High
Add ID3 tag : No
Command line compressor : C:\Program Files\Exact Audio Copy\Flac\flac.exe
Additional command line options : -8 -V -T "ARTIST=%a" -T "TITLE=%t" -T "ALBUM=%g" -T "DATE=%y" -T "TRACKNUMBER=%n" -T "TOTALTRACKS=%x" -T "GENRE=%m" -T "ALBUMARTIST=%v" -T "ALBUM ARTIST=%v" -T "COMMENT=EAC Secure Mode, Test & Copy, AccurateRip, FLAC -8" %s
TOC of the extracted CD
Track | Start | Length | Start sector | End sector
---------------------------------------------------------
1 | 0:00.00 | 4:23.74 | 0 | 19798
2 | 4:23.74 | 3:24.00 | 19799 | 35098
3 | 7:47.74 | 4:12.06 | 35099 | 54004
4 | 12:00.05 | 5:13.29 | 54005 | 77508
5 | 17:13.34 | 5:27.12 | 77509 | 102045
6 | 22:40.46 | 4:05.31 | 102046 | 120451
7 | 26:46.02 | 4:02.48 | 120452 | 138649
8 | 30:48.50 | 4:23.60 | 138650 | 158434
9 | 35:12.35 | 4:57.36 | 158435 | 180745
10 | 40:09.71 | 4:00.59 | 180746 | 198804
11 | 44:10.55 | 3:44.50 | 198805 | 215654
12 | 47:55.30 | 4:45.42 | 215655 | 237071
13 | 52:40.72 | 4:18.24 | 237072 | 256445
14 | 56:59.21 | 4:43.40 | 256446 | 277710
15 | 61:42.61 | 6:12.74 | 277711 | 305684
16 | 67:55.60 | 5:20.64 | 305685 | 329748
17 | 73:16.49 | 5:55.44 | 329749 | 356417
Track 1
Filename C:\Addis Gugsa Is Ethiopian\01 - Heavenly Body.wav
Pre-gap length 0:00:02.00
Peak level 100.0 %
Extraction speed 1.1 X
Track quality 99.9 %
Test CRC D01FE3F5
Copy CRC D01FE3F5
Track not present in AccurateRip database
Copy OK
Track 2
Filename C:\Addis Gugsa Is Ethiopian\02 - Strung Out.wav
Pre-gap length 0:00:01.71
Peak level 100.0 %
Extraction speed 1.3 X
Track quality 100.0 %
Test CRC EFC56525
Copy CRC EFC56525
Track not present in AccurateRip database
Copy OK
Track 3
Filename C:\Addis Gugsa Is Ethiopian\03 - Round & Round.wav
Pre-gap length 0:00:01.71
Peak level 100.0 %
Extraction speed 1.5 X
Track quality 100.0 %
Test CRC B8311632
Copy CRC B8311632
Track not present in AccurateRip database
Copy OK
Track 4
Filename C:\Addis Gugsa Is Ethiopian\04 - Love Shock.wav
Pre-gap length 0:00:01.71
Peak level 100.0 %
Extraction speed 1.7 X
Track quality 100.0 %
Test CRC D0C4FEDA
Copy CRC D0C4FEDA
Track not present in AccurateRip database
Copy OK
Track 5
Filename C:\Addis Gugsa Is Ethiopian\05 - Have You Seen Her.wav
Pre-gap length 0:00:01.71
Peak level 100.0 %
Extraction speed 1.8 X
Track quality 100.0 %
Test CRC DF3F5170
Copy CRC DF3F5170
Track not present in AccurateRip database
Copy OK
Track 6
Filename C:\Addis Gugsa Is Ethiopian\06 - All I Want To Do Is Make Love To You.wav
Pre-gap length 0:00:01.71
Peak level 100.0 %
Extraction speed 1.8 X
Track quality 100.0 %
Test CRC 7E844A91
Copy CRC 7E844A91
Track not present in AccurateRip database
Copy OK
Track 7
Filename C:\Addis Gugsa Is Ethiopian\07 - Give Me A Dream.wav
Pre-gap length 0:00:01.71
Peak level 100.0 %
Extraction speed 1.9 X
Track quality 100.0 %
Test CRC C395C230
Copy CRC C395C230
Track not present in AccurateRip database
Copy OK
Track 8
Filename C:\Addis Gugsa Is Ethiopian\08 - Super Mad (About You Baby).wav
Pre-gap length 0:00:01.71
Peak level 100.0 %
Extraction speed 2.1 X
Track quality 100.0 %
Test CRC F33EEA12
Copy CRC F33EEA12
Track not present in AccurateRip database
Copy OK
Track 9
Filename C:\Addis Gugsa Is Ethiopian\09 - Me And You.wav
Pre-gap length 0:00:01.71
Peak level 100.0 %
Extraction speed 2.2 X
Track quality 100.0 %
Test CRC 68E38B8D
Copy CRC 68E38B8D
Track not present in AccurateRip database
Copy OK
Track 10
Filename C:\Addis Gugsa Is Ethiopian\10 - Tell Me Where It Hurts.wav
Pre-gap length 0:00:01.71
Peak level 100.0 %
Extraction speed 2.2 X
Track quality 100.0 %
Test CRC 16E45B8B
Copy CRC 16E45B8B
Track not present in AccurateRip database
Copy OK
Track 11
Filename C:\Addis Gugsa Is Ethiopian\11 - Whole Lot Of Good Lovin'.wav
Pre-gap length 0:00:01.71
Peak level 100.0 %
Extraction speed 2.2 X
Track quality 100.0 %
Test CRC FB1367A9
Copy CRC FB1367A9
Track not present in AccurateRip database
Copy OK
Track 12
Filename C:\Addis Gugsa Is Ethiopian\12 - Oh Girl.wav
Pre-gap length 0:00:01.71
Peak level 100.0 %
Extraction speed 2.1 X
Track quality 99.9 %
Test CRC EA9D100F
Copy CRC EA9D100F
Track not present in AccurateRip database
Copy OK
Track 13
Filename C:\Addis Gugsa Is Ethiopian\13 - Get Down With Me.wav
Pre-gap length 0:00:01.71
Peak level 100.0 %
Extraction speed 2.4 X
Track quality 100.0 %
Test CRC 68015647
Copy CRC 68015647
Track not present in AccurateRip database
Copy OK
Track 14
Filename C:\Addis Gugsa Is Ethiopian\14 - Try My Side (Of Love).wav
Pre-gap length 0:00:01.71
Peak level 100.0 %
Extraction speed 2.5 X
Track quality 100.0 %
Test CRC 635A7F44
Copy CRC 635A7F44
Track not present in AccurateRip database
Copy OK
Track 15
Filename C:\Addis Gugsa Is Ethiopian\15 - Hot On A Thing (Called Love).wav
Pre-gap length 0:00:01.71
Peak level 93.3 %
Extraction speed 2.7 X
Track quality 100.0 %
Test CRC 807EF11B
Copy CRC 807EF11B
Track not present in AccurateRip database
Copy OK
Track 16
Filename C:\Addis Gugsa Is Ethiopian\16 - Never Speak To A Stranger.wav
Pre-gap length 0:00:01.71
Peak level 100.0 %
Extraction speed 2.8 X
Track quality 100.0 %
Test CRC E3A9CC05
Copy CRC E3A9CC05
Track not present in AccurateRip database
Copy OK
Track 17
Filename C:\Addis Gugsa Is Ethiopian\17 - Try My Side (Of Love) (12' Extended Mix).wav
Pre-gap length 0:00:01.71
Peak level 100.0 %
Extraction speed 0.7 X
Track quality 99.3 %
Test CRC C64A91F3
Copy CRC C64A91F3
Track not present in AccurateRip database
Copy OK
None of the tracks are present in the AccurateRip database
No errors occurred
End of status report
==== Log checksum D74BD6E9C47F0A67D72D5E0266B964499F38A19DDDB7C6D59BA0267413E59333 ====
 
Содержание индексной карты (.CUE)
REM GENRE Soul
REM DATE 2011
REM DISCID E4129011
REM COMMENT "ExactAudioCopy v1.0b1"
PERFORMER "The Chi-Lites"
TITLE "Heavenly Body - Me And You"
FILE "01 - Heavenly Body.wav" WAVE
TRACK 01 AUDIO
TITLE "Heavenly Body"
PERFORMER "The Chi-Lites"
INDEX 01 00:00:00
TRACK 02 AUDIO
TITLE "Strung Out"
PERFORMER "The Chi-Lites"
INDEX 00 04:22:03
FILE "02 - Strung Out.wav" WAVE
INDEX 01 00:00:00
TRACK 03 AUDIO
TITLE "Round & Round"
PERFORMER "The Chi-Lites"
INDEX 00 03:22:04
FILE "03 - Round & Round.wav" WAVE
INDEX 01 00:00:00
TRACK 04 AUDIO
TITLE "Love Shock"
PERFORMER "The Chi-Lites"
INDEX 00 04:10:10
FILE "04 - Love Shock.wav" WAVE
INDEX 01 00:00:00
TRACK 05 AUDIO
TITLE "Have You Seen Her"
PERFORMER "The Chi-Lites"
INDEX 00 05:11:33
FILE "05 - Have You Seen Her.wav" WAVE
INDEX 01 00:00:00
TRACK 06 AUDIO
TITLE "All I Want To Do Is Make Love To You"
PERFORMER "The Chi-Lites"
INDEX 00 05:25:16
FILE "06 - All I Want To Do Is Make Love To You.wav" WAVE
INDEX 01 00:00:00
TRACK 07 AUDIO
TITLE "Give Me A Dream"
PERFORMER "The Chi-Lites"
INDEX 00 04:03:35
FILE "07 - Give Me A Dream.wav" WAVE
INDEX 01 00:00:00
TRACK 08 AUDIO
TITLE "Super Mad (About You Baby)"
PERFORMER "The Chi-Lites"
INDEX 00 04:00:52
FILE "08 - Super Mad (About You Baby).wav" WAVE
INDEX 01 00:00:00
TRACK 09 AUDIO
TITLE "Me And You"
PERFORMER "The Chi-Lites"
INDEX 00 04:21:64
FILE "09 - Me And You.wav" WAVE
INDEX 01 00:00:00
TRACK 10 AUDIO
TITLE "Tell Me Where It Hurts"
PERFORMER "The Chi-Lites"
INDEX 00 04:55:40
FILE "10 - Tell Me Where It Hurts.wav" WAVE
INDEX 01 00:00:00
TRACK 11 AUDIO
TITLE "Whole Lot Of Good Lovin'"
PERFORMER "The Chi-Lites"
INDEX 00 03:58:63
FILE "11 - Whole Lot Of Good Lovin'.wav" WAVE
INDEX 01 00:00:00
TRACK 12 AUDIO
TITLE "Oh Girl"
PERFORMER "The Chi-Lites"
INDEX 00 03:42:54
FILE "12 - Oh Girl.wav" WAVE
INDEX 01 00:00:00
TRACK 13 AUDIO
TITLE "Get Down With Me"
PERFORMER "The Chi-Lites"
INDEX 00 04:43:46
FILE "13 - Get Down With Me.wav" WAVE
INDEX 01 00:00:00
TRACK 14 AUDIO
TITLE "Try My Side (Of Love)"
PERFORMER "The Chi-Lites"
INDEX 00 04:16:28
FILE "14 - Try My Side (Of Love).wav" WAVE
INDEX 01 00:00:00
TRACK 15 AUDIO
TITLE "Hot On A Thing (Called Love)"
PERFORMER "The Chi-Lites"
INDEX 00 04:41:44
FILE "15 - Hot On A Thing (Called Love).wav" WAVE
INDEX 01 00:00:00
TRACK 16 AUDIO
TITLE "Never Speak To A Stranger"
PERFORMER "The Chi-Lites"
INDEX 00 06:11:03
FILE "16 - Never Speak To A Stranger.wav" WAVE
INDEX 01 00:00:00
TRACK 17 AUDIO
TITLE "Try My Side (Of Love) (12' Extended Mix)"
PERFORMER "The Chi-Lites"
INDEX 00 05:18:68
FILE "17 - Try My Side (Of Love) (12' Extended Mix).wav" WAVE
INDEX 01 00:00:00
 
DR Log
foobar2000 1.1.10 / Dynamic Range Meter 1.1.1
log date: 2018-07-11 13:36:10
--------------------------------------------------------------------------------
Analyzed: The Chi-Lites / Heavenly Body - Me And You
--------------------------------------------------------------------------------
DR Peak RMS Duration Track
--------------------------------------------------------------------------------
DR8 0.00 dB -9.56 dB 4:24 ?-Heavenly Body
DR8 0.00 dB -8.99 dB 3:24 ?-Strung Out
DR8 0.00 dB -9.90 dB 4:12 ?-Round & Round
DR7 0.00 dB -9.36 dB 5:13 ?-Love Shock
DR7 0.00 dB -9.87 dB 5:27 ?-Have You Seen Her
DR8 0.00 dB -9.51 dB 4:05 ?-All I Want To Do Is Make Love To You
DR8 0.00 dB -10.31 dB 4:03 ?-Give Me A Dream
DR9 0.00 dB -10.82 dB 4:24 ?-Super Mad (About You Baby)
DR8 0.00 dB -10.54 dB 4:57 ?-Me And You
DR9 0.00 dB -11.94 dB 4:01 ?-Tell Me Where It Hurts
DR9 0.00 dB -11.46 dB 3:45 ?-Whole Lot Of Good Lovin'
DR9 0.00 dB -10.68 dB 4:46 ?-Oh Girl
DR10 0.00 dB -12.70 dB 4:18 ?-Get Down With Me
DR9 0.00 dB -10.49 dB 4:44 ?-Try My Side (Of Love)
DR9 -0.60 dB -11.63 dB 6:13 ?-Hot On A Thing (Called Love)
DR9 0.00 dB -12.55 dB 5:21 ?-Never Speak To A Stranger
DR8 0.00 dB -10.27 dB 5:56 ?-Try My Side (Of Love) (12' Extended Mix)
--------------------------------------------------------------------------------
Number of tracks: 17
Official DR value: DR8
Samplerate: 44100 Hz
Channels: 2
Bits per sample: 16
Bitrate: 992 kbps
Codec: FLAC
================================================================================
 
Об исполнителе (группе)
Digitally re-mastered two-for containing a pair of albums from the Soul legends: Heavenly Body (1980) and Me & You (1981). The Chi-Lites had their biggest hits in the 70s but continued as an entity through the next few decades. For these two albums, the group consisted of Marshall Thompson, Eugene Record, Robert Lester, Marshall Thompson, and Creadel Jones. Both album boast some of the finest musicians of the day, fantastic full bodied productions swimming in strings and horns. We include here the rare 12" mix of "Try My Side of Love" and showcase some luxury soul in a variety of flavors and tempos all delivered by one of the finest ever vocal harmony groups to exist. Expansion.
https://en.wikipedia.org/wiki/The_Chi-Lites

Раздаю до первых 5-ти скачавших, на раздачи не возвращаюсь...
Приватный:
Нет (DHT включён)
Размер:
587.81 Мб (616,367,222 байт) » файлов: 29
Участники:
0 раздают, 0 качают (0 участников всего)
Внешние участники:
3 раздают, 1 качают (4 участников всего) [ Обновить ]
No seeders - write personal message to user M0p94ok. Нет сидеров - пишите личное сообщение пользователю M0p94ok.
16:06
62
Нет комментариев. Ваш будет первым!