Поиск

(Fusion, Nu Jazz, Soul) [WEB] Slowly Rolling Camera - Juniper - 2018, FLAC (tracks), lossless

(Fusion, Nu Jazz, Soul) [WEB] Slowly Rolling Camera - Juniper - 2018, FLAC (tracks), lossless
Треклист:
Slowly Rolling Camera / Juniper
Жанр: Fusion, Nu Jazz, Soul
Год издания: 2018
Издатель (лейбл): Edition Records
Номер по каталогу: EDN1115
Страна исполнителя: UK (Wales)
Аудиокодек: FLAC (*.flac)
Тип рипа: tracks
Битрейт аудио: lossless
Продолжительность: 42:31
Источник (релизер): WEB
Наличие сканов: front
Треклист:
1. Juniper
2. Helsinki
3. A Thousand Lights
4. Hyperloop
5. Crossings
6. Nature's Ratio
7. The Outlier
8. Eight Days
 
Лог проверки качества
AUDIOCHECKER v2.0 beta (build 457) - by Dester - opdester@freemail.hu
~~~~~~~~~~~~~~~~~~~~~~~~~~~~~~~~~~
-=== DO NOT EDIT THIS FILE! ===-
Path: ...\Slowly Rolling Camera - Juniper (2018) [FLAC]
1 -=- 01 - Juniper.flac -=- CDDA (100%)
2 -=- 02 - Helsinki.flac -=- CDDA (100%)
3 -=- 03 - A Thousand Lights.flac -=- CDDA (100%)
4 -=- 04 - Hyperloop.flac -=- CDDA (100%)
5 -=- 05 - Crossings.flac -=- CDDA (100%)
6 -=- 06 - Nature's Ratio.flac -=- CDDA (99%)
7 -=- 07 - The Outlier.flac -=- CDDA (100%)
8 -=- 08 - Eight Days.flac -=- CDDA (100%)
Summary 99,88% CDDA
194210964
__________________
foobar2000 1.3.12 / Замер динамического диапазона (DR) 1.1.1
Дата отчёта: 2018-07-10 23:43:11
--------------------------------------------------------------------------------
Анализ: Slowly Rolling Camera / Juniper
--------------------------------------------------------------------------------
DR Пики RMS Продолжительность трека
--------------------------------------------------------------------------------
DR10 -0.28 дБ -13.81 дБ 7:46 01-Juniper
DR8 -0.27 дБ -12.30 дБ 5:56 02-Helsinki
DR10 -0.30 дБ -12.68 дБ 2:47 03-A Thousand Lights
DR8 -0.25 дБ -11.06 дБ 5:30 04-Hyperloop
DR8 -0.25 дБ -11.98 дБ 7:09 05-Crossings
DR9 -0.29 дБ -13.31 дБ 1:58 06-Nature's Ratio
DR8 -0.26 дБ -10.43 дБ 5:32 07-The Outlier
DR9 -0.28 дБ -12.03 дБ 5:53 08-Eight Days
--------------------------------------------------------------------------------
Количество треков: 8
Реальные значения DR: DR9
Частота: 44100 Гц
Каналов: 2
Разрядность: 16
Битрейт: 703 кбит/с
Кодек: FLAC
================================================================================
 
Об альбоме
It would be just too facile to contend that the music produced by Slowly Rolling Camera is in the same ball park as, say, Air, Massive Attack or Groove Armada. For while it's partially true to assign the trip hop epithet to SRC, that shorthand does this trio (comprising, Dave Stapleton, Deri Roberts and Elliot Bennett) a disservice. The group's musical lineage undoubtedly extends way further back, even beyond Soft Machine, Weather Report or Terry Riley. The use of saxophones on tracks like the dynamic "Crossings" coupled with the satisfyingly complex arrangements found on say, "The Outlier," reach into the sheets of sound territory first explored by John Coltrane but, even better, these tunes are also augmented by intricately textured ensemble passages.
The title track especially benefits from this modal sensibility, with feisty tenor saxophone duelling with drums and keyboards. There are some outstanding points of difference too, with the killer synth/Moogy riff on "Helsinki" which binds the kaleidoscopic track together. A Coltrane-esque influence is present here too, courtesy of coruscating, soulful saxophones. "Hyperloop" is techno-rich but crucially—unlike that of Kraftwerk, for example—derived from the presence of live musicians, as opposed to programming. Especially on Stuart McCallum's blazing guitar solo midway through the piece. Compare that to the spine-tingling beauty of "Nature's Ratio."
Despite the absence of Dionne Bennett from Juniper, whose sultry vocals adorned SRC's previous recordings, the band continues its unalloyed mission to establish and develop an irrepressible groove informed by a vital infusion of world-class extemporization. The eight tracks, all penned by Stapleton, are characterised by their accessibility, yet manage to do this without compromising one iota of artistic merit. It's a very tall order to pull off, but Juniper, succeeds on every level. (Roger Farbey, allaboutjazz.com)
 
Состав

DAVE STAPLETON composer, keyboards
DERI ROBERTS electronics, sound design
ELLIOT BENNETT drums
STUART McCALLUM guitar
NEIL YATES trumpet
MARK LOCKHEART saxophones
NICOLAS KUMMERT saxophones
AIDAN THORNE double bass
Tom Barford tenor & soprano saxophone
James Copus trumpet
Sam Glaser alto saxophone
Первый у группы полностью инструментальный альбом, без вокалистки Дайон Беннетт.
Приватный:
Нет (DHT включён)
Размер:
240.63 Мб (252,323,529 байт) » файлов: 11
Участники:
0 раздают, 0 качают (0 участников всего)
Внешние участники:
5 раздают, 1 качают (6 участников всего) [ Обновить ]
No seeders - write personal message to user M0p94ok. Нет сидеров - пишите личное сообщение пользователю M0p94ok.
16:06
52
Нет комментариев. Ваш будет первым!