Поиск

(Funk, Soul) [CD] Souls in Rhythm - Can't Fake the Funk - 2006, FLAC (tracks+.cue), lossless

(Funk, Soul) [CD] Souls in Rhythm - Can't Fake the Funk - 2006, FLAC (tracks+.cue), lossless
Треклист:
Souls in Rhythm / Can't Fake the Funk
Жанр: Funk, Soul
Носитель: CD
Страна-производитель диска (релиза): Canada
Год издания: 2006
Издатель (лейбл): Soul Motion Artists
Номер по каталогу: SMA-001
Страна исполнителя (группы): Canada
Аудиокодек: FLAC (*.flac)
Тип рипа: tracks+.cue
Битрейт аудио: lossless
Продолжительность: 0:45:44.
Источник (релизер): clustert
Наличие сканов в содержимом раздачи: да
Треклист:
01. Still Running [0:03:07.09]
02. I Quit [0:03:56.65]
03. Searching for a Hit (interlude) [0:00:13.58]
04. Can't Fake the Funk [0:04:04.19]
05. Heaven [0:04:22.33]
06. Life = Good [0:03:51.03]
07. High on the City [0:04:11.07]
08. I Release Me [0:05:39.43]
09. Rohanna [0:03:50.51]
10. Time 2 Fly [0:04:18.54]
11. Give it 2 Me [0:04:14.72]
12. I'm Here [0:03:54.15]
 
Лог создания рипа
Exact Audio Copy V1.0 beta 3 from 29. August 2011
Отчёт EAC об извлечении, выполненном 30. октября 2015, 23:46
Souls in Rhythm / Can't Fake the Funk
Дисковод: ASUS DRW-1814BLT Adapter: 4 ID: 0
Режим чтения : Достоверность
Использование точного потока : Да
Отключение кэша аудио : Да
Использование указателей C2 : Нет
Коррекция смещения при чтении : 6
Способность читать области Lead-in и Lead-out : Нет
Заполнение пропущенных сэмплов тишиной : Да
Удаление блоков с тишиной в начале и конце : Нет
При вычислениях CRC использовались нулевые сэмплы : Да
Интерфейс : Встроенный Win32-интерфейс для Win NT/2000
Обработка зазоров : Добавлено к предыдущему треку
Выходной формат : Пользовательский кодировщик
Выбранный битрейт : 128 kBit/s
Качество : Высокий
Добавление ID3-тега : Нет
Утилита сжатия : C:\Program Files\Exact Audio Copy\Flac\flac.exe
Дополнительные параметры : -V -8 -T "Genre=%genre%" -T "Artist=%artist%" -T "Title=%title%" -T "Album=%albumtitle%" -T "Date=%year%" -T "Tracknumber=%tracknr%" -T "Comment=EAC1.0b2 FLAC -8" %source%
TOC извлечённого CD
Трек | Старт | Длительность | Начальный сектор | Конечный сектор
---------------------------------------------------------------------
1 | 0:00.00 | 3:07.09 | 0 | 14033
2 | 3:07.09 | 3:56.65 | 14034 | 31798
3 | 7:03.74 | 0:13.58 | 31799 | 32831
4 | 7:17.57 | 4:04.19 | 32832 | 51150
5 | 11:22.01 | 4:22.33 | 51151 | 70833
6 | 15:44.34 | 3:51.03 | 70834 | 88161
7 | 19:35.37 | 4:11.07 | 88162 | 106993
8 | 23:46.44 | 5:39.43 | 106994 | 132461
9 | 29:26.12 | 3:50.51 | 132462 | 149762
10 | 33:16.63 | 4:18.54 | 149763 | 169166
11 | 37:35.42 | 4:14.72 | 169167 | 188288
12 | 41:50.39 | 3:54.15 | 188289 | 205853
Трек 1
Имя файла R:\Раздача 55\Souls In Rhythm - 2006 - Can't Fake The Funk\01 Still Running.wav
Длина предзазора 0:00:02.00
Пиковый уровень 98.8 %
Скорость извлечения 4.8 X
Качество трека 100.0 %
CRC теста 4714D01D
CRC копии 4714D01D
Точное извлечение (достоверность 1) [F60D4B3D] (AR v1)
Копирование... OK
Трек 2
Имя файла R:\Раздача 55\Souls In Rhythm - 2006 - Can't Fake The Funk\02 I Quit.wav
Пиковый уровень 98.8 %
Скорость извлечения 5.6 X
Качество трека 100.0 %
CRC теста 4D3B2852
CRC копии 4D3B2852
Точное извлечение (достоверность 1) [B0EED584] (AR v1)
Копирование... OK
Трек 3
Имя файла R:\Раздача 55\Souls In Rhythm - 2006 - Can't Fake The Funk\03 Searching for a Hit (interlude).wav
Пиковый уровень 43.2 %
Скорость извлечения 1.7 X
Качество трека 100.0 %
CRC теста 82CB066D
CRC копии 82CB066D
Точное извлечение (достоверность 1) [5BEFC3F1] (AR v1)
Копирование... OK
Трек 4
Имя файла R:\Раздача 55\Souls In Rhythm - 2006 - Can't Fake The Funk\04 Can't Fake the Funk.wav
Пиковый уровень 98.8 %
Скорость извлечения 6.1 X
Качество трека 100.0 %
CRC теста A4F7A99C
CRC копии A4F7A99C
Точное извлечение (достоверность 1) [9A77F3AF] (AR v1)
Копирование... OK
Трек 5
Имя файла R:\Раздача 55\Souls In Rhythm - 2006 - Can't Fake The Funk\05 Heaven.wav
Пиковый уровень 98.8 %
Скорость извлечения 6.7 X
Качество трека 100.0 %
CRC теста A13F4AFF
CRC копии A13F4AFF
Точное извлечение (достоверность 1) [64139136] (AR v1)
Копирование... OK
Трек 6
Имя файла R:\Раздача 55\Souls In Rhythm - 2006 - Can't Fake The Funk\06 Life = Good.wav
Пиковый уровень 98.8 %
Скорость извлечения 5.2 X
Качество трека 99.9 %
CRC теста 0535D026
CRC копии 0535D026
Точное извлечение (достоверность 1) [B09D9C91] (AR v1)
Копирование... OK
Трек 7
Имя файла R:\Раздача 55\Souls In Rhythm - 2006 - Can't Fake The Funk\07 High on the City.wav
Пиковый уровень 98.8 %
Скорость извлечения 7.5 X
Качество трека 100.0 %
CRC теста EDCD829A
CRC копии EDCD829A
Точное извлечение (достоверность 1) [987B470B] (AR v1)
Копирование... OK
Трек 8
Имя файла R:\Раздача 55\Souls In Rhythm - 2006 - Can't Fake The Funk\08 I Release Me.wav
Пиковый уровень 98.8 %
Скорость извлечения 8.2 X
Качество трека 100.0 %
CRC теста 89AA68C7
CRC копии 89AA68C7
Точное извлечение (достоверность 1) [1C3BE0A0] (AR v1)
Копирование... OK
Трек 9
Имя файла R:\Раздача 55\Souls In Rhythm - 2006 - Can't Fake The Funk\09 Rohanna.wav
Пиковый уровень 98.8 %
Скорость извлечения 8.2 X
Качество трека 100.0 %
CRC теста DCC5A70D
CRC копии DCC5A70D
Точное извлечение (достоверность 1) [21980D7B] (AR v1)
Копирование... OK
Трек 10
Имя файла R:\Раздача 55\Souls In Rhythm - 2006 - Can't Fake The Funk\10 Time 2 Fly.wav
Пиковый уровень 98.8 %
Скорость извлечения 8.7 X
Качество трека 100.0 %
CRC теста FF8CA138
CRC копии FF8CA138
Точное извлечение (достоверность 1) [AA4B22C3] (AR v1)
Копирование... OK
Трек 11
Имя файла R:\Раздача 55\Souls In Rhythm - 2006 - Can't Fake The Funk\11 Give it 2 Me.wav
Пиковый уровень 98.8 %
Скорость извлечения 6.7 X
Качество трека 99.9 %
CRC теста 35C6B814
CRC копии 35C6B814
Точное извлечение (достоверность 1) [BBFDD6E6] (AR v1)
Копирование... OK
Трек 12
Имя файла R:\Раздача 55\Souls In Rhythm - 2006 - Can't Fake The Funk\12 I'm Here.wav
Пиковый уровень 98.8 %
Скорость извлечения 8.8 X
Качество трека 100.0 %
CRC теста 172554DF
CRC копии 172554DF
Точное извлечение (достоверность 1) [4C12958F] (AR v1)
Копирование... OK
Все треки извлечены точно
Ошибок не произошло
Конец отчёта
==== Контрольная сумма отчёта 06402D1774C3CA101AEE06B9BF29EAFAC06383211D584E0B90DD07E458FF963F ====
 
Содержание индексной карты (.CUE)
REM GENRE Funk
REM DATE 2006
REM DISCID BE0AB80C
REM COMMENT "ExactAudioCopy v1.0b3"
PERFORMER "Souls in Rhythm"
TITLE "Can't Fake the Funk"
FILE "01 Still Running.wav" WAVE
TRACK 01 AUDIO
TITLE "Still Running"
PERFORMER "Souls in Rhythm"
FLAGS DCP
INDEX 01 00:00:00
FILE "02 I Quit.wav" WAVE
TRACK 02 AUDIO
TITLE "I Quit"
PERFORMER "Souls in Rhythm"
FLAGS DCP
INDEX 01 00:00:00
FILE "03 Searching for a Hit (interlude).wav" WAVE
TRACK 03 AUDIO
TITLE "Searching for a Hit (interlude)"
PERFORMER "Souls in Rhythm"
FLAGS DCP
INDEX 01 00:00:00
FILE "04 Can't Fake the Funk.wav" WAVE
TRACK 04 AUDIO
TITLE "Can't Fake the Funk"
PERFORMER "Souls in Rhythm"
FLAGS DCP
INDEX 01 00:00:00
FILE "05 Heaven.wav" WAVE
TRACK 05 AUDIO
TITLE "Heaven"
PERFORMER "Souls in Rhythm"
FLAGS DCP
INDEX 01 00:00:00
FILE "06 Life = Good.wav" WAVE
TRACK 06 AUDIO
TITLE "Life = Good"
PERFORMER "Souls in Rhythm"
FLAGS DCP
INDEX 01 00:00:00
FILE "07 High on the City.wav" WAVE
TRACK 07 AUDIO
TITLE "High on the City"
PERFORMER "Souls in Rhythm"
FLAGS DCP
INDEX 01 00:00:00
FILE "08 I Release Me.wav" WAVE
TRACK 08 AUDIO
TITLE "I Release Me"
PERFORMER "Souls in Rhythm"
FLAGS DCP
INDEX 01 00:00:00
FILE "09 Rohanna.wav" WAVE
TRACK 09 AUDIO
TITLE "Rohanna"
PERFORMER "Souls in Rhythm"
FLAGS DCP
INDEX 01 00:00:00
FILE "10 Time 2 Fly.wav" WAVE
TRACK 10 AUDIO
TITLE "Time 2 Fly"
PERFORMER "Souls in Rhythm"
FLAGS DCP
INDEX 01 00:00:00
FILE "11 Give it 2 Me.wav" WAVE
TRACK 11 AUDIO
TITLE "Give it 2 Me"
PERFORMER "Souls in Rhythm"
FLAGS DCP
INDEX 01 00:00:00
FILE "12 I'm Here.wav" WAVE
TRACK 12 AUDIO
TITLE "I'm Here"
PERFORMER "Souls in Rhythm"
FLAGS DCP
INDEX 01 00:00:00
Приватный:
Нет (DHT включён)
Размер:
294.28 Мб (308,573,758 байт) » файлов: 22
Участники:
0 раздают, 0 качают (0 участников всего)
Внешние участники:
1 раздают, 0 качают (1 участников всего) [ Обновить ]
Есть вопросы - пишите личное сообщение пользователю M0p94ok.
08:36
73
Нет комментариев. Ваш будет первым!