Поиск

(R&B / Soul / Disco) [CD] Barbara Mason - Another Man - 1995, FLAC (tracks+.cue), lossless

(R&B / Soul / Disco) [CD] Barbara Mason - Another Man - 1995, FLAC (tracks+.cue), lossless
Треклист:
Barbara Mason / Another Man (1995)
Жанр: R&B / Soul / Disco
Носитель: CD
Страна-производитель диска (релиза): USA
Год издания: 1995
Издатель (лейбл): Society Hill Records
Номер по каталогу: HTCD 6699-2
Страна исполнителя (группы): USA
Аудиокодек: FLAC (*.flac)
Тип рипа: tracks+.cue
Битрейт аудио: lossless
Продолжительность: 00:47:42
Источник (релизер): из интернета
Наличие сканов в содержимом раздачи: да
Треклист:
01 Winter Love
02 Easy
03 Agony & Ecstasy
04 Don't I Ever Cross Your Mind
05 Another Man
06 She's Got The Papers (I Got The Man)
07 Down Too Long
08 All Of A Sudden
09 Tied Up
 
Лог создания рипа
Exact Audio Copy V0.99 prebeta 5 from 4. May 2009
EAC extraction logfile from 12. June 2010, 20:35
Barbara Mason / Another Man
Used drive : TSSTcorpCDDVDW SH-S223F Adapter: 3 ID: 0
Read mode : Secure
Utilize accurate stream : Yes
Defeat audio cache : Yes
Make use of C2 pointers : No
Read offset correction : 6
Overread into Lead-In and Lead-Out : No
Fill up missing offset samples with silence : Yes
Delete leading and trailing silent blocks : No
Null samples used in CRC calculations : Yes
Used interface : Native Win32 interface for Win NT & 2000
Gap handling : Appended to previous track
Used output format : User Defined Encoder
Selected bitrate : 192 kBit/s
Quality : High
Add ID3 tag : No
Command line compressor : D:\Program Files\Exact Audio Copy\flac-1.1.4-win\bin\flac.exe
Additional command line options : -V -8 -T "artist=%a" -T "title=%t" -T "album=%g" -T "date=%y" -T "tracknumber=%n" -T "genre=%m" %s
TOC of the extracted CD
Track | Start | Length | Start sector | End sector
---------------------------------------------------------
1 | 0:00.00 | 5:52.30 | 0 | 26429
2 | 5:52.30 | 5:30.25 | 26430 | 51204
3 | 11:22.55 | 5:29.62 | 51205 | 75941
4 | 16:52.42 | 5:54.70 | 75942 | 102561
5 | 22:47.37 | 6:55.23 | 102562 | 133709
6 | 29:42.60 | 7:48.20 | 133710 | 168829
7 | 37:31.05 | 3:43.50 | 168830 | 185604
8 | 41:14.55 | 3:28.02 | 185605 | 201206
9 | 44:42.57 | 2:58.58 | 201207 | 214614
Track 1
Filename E:\EAC\Barbara Mason - Another Man - CD - 1995 - FLAC\01. Barbara Mason - Winter Love.wav
Pre-gap length 0:00:02.00
Peak level 97.6 %
Track quality 100.0 %
Test CRC C2DD669A
Copy CRC C2DD669A
Track not present in AccurateRip database
Copy OK
Track 2
Filename E:\EAC\Barbara Mason - Another Man - CD - 1995 - FLAC\02. Barbara Mason - Easy.wav
Peak level 89.0 %
Track quality 100.0 %
Test CRC 3333A0C1
Copy CRC 3333A0C1
Track not present in AccurateRip database
Copy OK
Track 3
Filename E:\EAC\Barbara Mason - Another Man - CD - 1995 - FLAC\03. Barbara Mason - Agony & Ecstasy.wav
Peak level 95.3 %
Track quality 100.0 %
Test CRC 22BF127C
Copy CRC 22BF127C
Track not present in AccurateRip database
Copy OK
Track 4
Filename E:\EAC\Barbara Mason - Another Man - CD - 1995 - FLAC\04. Barbara Mason - Don't I Ever Cross Your Mind.wav
Peak level 87.0 %
Track quality 100.0 %
Test CRC 4DAAEFDE
Copy CRC 4DAAEFDE
Track not present in AccurateRip database
Copy OK
Track 5
Filename E:\EAC\Barbara Mason - Another Man - CD - 1995 - FLAC\05. Barbara Mason - Another Man.wav
Peak level 97.7 %
Track quality 100.0 %
Test CRC 80812DED
Copy CRC 80812DED
Track not present in AccurateRip database
Copy OK
Track 6
Filename E:\EAC\Barbara Mason - Another Man - CD - 1995 - FLAC\06. Barbara Mason - She's Got The Papers (I Got The Man).wav
Peak level 97.5 %
Track quality 100.0 %
Test CRC 33DD0B24
Copy CRC 33DD0B24
Track not present in AccurateRip database
Copy OK
Track 7
Filename E:\EAC\Barbara Mason - Another Man - CD - 1995 - FLAC\07. Barbara Mason - Down Too Long.wav
Peak level 93.2 %
Track quality 100.0 %
Test CRC 1A4CB241
Copy CRC 1A4CB241
Track not present in AccurateRip database
Copy OK
Track 8
Filename E:\EAC\Barbara Mason - Another Man - CD - 1995 - FLAC\08. Barbara Mason - All Of A Sudden.wav
Peak level 95.3 %
Track quality 100.0 %
Test CRC 771CE1D9
Copy CRC 771CE1D9
Track not present in AccurateRip database
Copy OK
Track 9
Filename E:\EAC\Barbara Mason - Another Man - CD - 1995 - FLAC\09. Barbara Mason - Tied Up.wav
Peak level 93.2 %
Track quality 100.0 %
Test CRC 2A7B3056
Copy CRC 2A7B3056
Track not present in AccurateRip database
Copy OK
None of the tracks are present in the AccurateRip database
No errors occurred
End of status report
 
Содержание индексной карты (.CUE)
REM GENRE Disco
REM DATE 1995
REM DISCID 800B2D09
REM COMMENT "ExactAudioCopy v0.99pb5"
FILE "01 Winter Love.wav" WAVE
TRACK 01 AUDIO
INDEX 01 00:00:00
FILE "02 Easy.wav" WAVE
TRACK 02 AUDIO
INDEX 01 00:00:00
FILE "03 Agony & Ecstasy.wav" WAVE
TRACK 03 AUDIO
INDEX 01 00:00:00
FILE "04 Don't I Ever Cross Your Mind.wav" WAVE
TRACK 04 AUDIO
INDEX 01 00:00:00
FILE "05 Another Man.wav" WAVE
TRACK 05 AUDIO
INDEX 01 00:00:00
FILE "06 She's Got The Papers (I Got The Man).wav" WAVE
TRACK 06 AUDIO
INDEX 01 00:00:00
FILE "07 Down Too Long.wav" WAVE
TRACK 07 AUDIO
INDEX 01 00:00:00
FILE "08 All Of A Sudden.wav" WAVE
TRACK 08 AUDIO
INDEX 01 00:00:00
FILE "09 Tied Up.wav" WAVE
TRACK 09 AUDIO
INDEX 01 00:00:00
Приватный:
Нет (DHT включён)
Размер:
297.92 Мб (312,392,725 байт) » файлов: 16
Участники:
0 раздают, 0 качают (0 участников всего)
Внешние участники:
3 раздают, 1 качают (4 участников всего) [ Обновить ]
No seeders - write a personal message to user M0p94ok. Нет сидеров - пишите личное сообщение пользователю M0p94ok.
08:37
110
Нет комментариев. Ваш будет первым!