Поиск

(Soul) [CD] R. Dean Taylor - The Essential Collection - 2001, FLAC (tracks+.cue), lossless

(Soul) [CD] R. Dean Taylor - The Essential Collection - 2001, FLAC (tracks+.cue), lossless
Треклист:
R. Dean Taylor / The Essential Collection
Жанр: Soul
Носитель: CD
Страна-производитель диска (релиза): EU
Год издания: 2001
Издатель (лейбл): Spectrum Music
Номер по каталогу: 544515-2
Аудиокодек: FLAC (*.flac)
Тип рипа: tracks+.cue
Битрейт аудио: lossless
Продолжительность: 0:56:22.
Источник (релизер): clustert
Наличие сканов в содержимом раздачи: да
Треклист:
01. Gotta See Jane [0:03:08.01]
02. Back Street [0:03:36.48]
03. Ain't it A Sad Thing [0:02:28.35]
04. Gonna Give Her All The Love I Got [0:02:52.18]
05. There's A Ghost In My House [0:02:14.21]
06. Don't Fool Around [0:02:29.31]
07. Indiana Wants Me [0:03:46.59]
08. Woman Alive [0:02:32.52]
09. Loves Your Name [0:02:19.55]
10. Taos New Mexico [0:03:11.01]
11. Fire And Rain [0:02:58.05]
12. Shadow [0:02:49.60]
13. Two Of Us [0:03:06.03]
14. Poor Girl [0:02:43.65]
15. Let's Go Somewhere [0:02:53.26]
16. Candy Apple Red [0:03:33.58]
17. Sunday Morning Coming Down [0:04:14.44]
18. Just Like In The Movies [0:02:31.19]
19. My Lady Bug Stay Away From That Beatle [0:02:52.28]
 
Лог создания рипа
Exact Audio Copy V1.0 beta 3 from 29. August 2011
Отчёт EAC об извлечении, выполненном 30. октября 2015, 22:56
R.Dean Taylor / The Essential Collection
Дисковод: ASUS DRW-1814BLT Adapter: 4 ID: 0
Режим чтения : Достоверность
Использование точного потока : Да
Отключение кэша аудио : Да
Использование указателей C2 : Нет
Коррекция смещения при чтении : 6
Способность читать области Lead-in и Lead-out : Нет
Заполнение пропущенных сэмплов тишиной : Да
Удаление блоков с тишиной в начале и конце : Нет
При вычислениях CRC использовались нулевые сэмплы : Да
Интерфейс : Встроенный Win32-интерфейс для Win NT/2000
Обработка зазоров : Добавлено к предыдущему треку
Выходной формат : Пользовательский кодировщик
Выбранный битрейт : 128 kBit/s
Качество : Высокий
Добавление ID3-тега : Нет
Утилита сжатия : C:\Program Files\Exact Audio Copy\Flac\flac.exe
Дополнительные параметры : -V -8 -T "Genre=%genre%" -T "Artist=%artist%" -T "Title=%title%" -T "Album=%albumtitle%" -T "Date=%year%" -T "Tracknumber=%tracknr%" -T "Comment=EAC1.0b2 FLAC -8" %source%
TOC извлечённого CD
Трек | Старт | Длительность | Начальный сектор | Конечный сектор
---------------------------------------------------------------------
1 | 0:00.00 | 3:08.01 | 0 | 14100
2 | 3:08.01 | 3:36.48 | 14101 | 30348
3 | 6:44.49 | 2:28.35 | 30349 | 41483
4 | 9:13.09 | 2:52.18 | 41484 | 54401
5 | 12:05.27 | 2:14.21 | 54402 | 64472
6 | 14:19.48 | 2:29.31 | 64473 | 75678
7 | 16:49.04 | 3:46.59 | 75679 | 92687
8 | 20:35.63 | 2:32.52 | 92688 | 104139
9 | 23:08.40 | 2:19.55 | 104140 | 114619
10 | 25:28.20 | 3:11.01 | 114620 | 128945
11 | 28:39.21 | 2:58.05 | 128946 | 142300
12 | 31:37.26 | 2:49.60 | 142301 | 155035
13 | 34:27.11 | 3:06.03 | 155036 | 168988
14 | 37:33.14 | 2:43.65 | 168989 | 181278
15 | 40:17.04 | 2:53.26 | 181279 | 194279
16 | 43:10.30 | 3:33.58 | 194280 | 210312
17 | 46:44.13 | 4:14.44 | 210313 | 229406
18 | 50:58.57 | 2:31.19 | 229407 | 240750
19 | 53:30.01 | 2:52.28 | 240751 | 253678
Трек 1
Имя файла R:\Раздача 55\R. Dean Taylor - 2001 - The Essential Collection\01 Gotta See Jane.wav
Длина предзазора 0:00:02.00
Пиковый уровень 98.3 %
Скорость извлечения 4.9 X
Качество трека 100.0 %
CRC теста FF120C65
CRC копии FF120C65
Точное извлечение (достоверность 6) [17F46493] (AR v2)
Копирование... OK
Трек 2
Имя файла R:\Раздача 55\R. Dean Taylor - 2001 - The Essential Collection\02 Back Street.wav
Длина предзазора 0:00:00.57
Пиковый уровень 95.4 %
Скорость извлечения 5.5 X
Качество трека 100.0 %
CRC теста B2452F37
CRC копии B2452F37
Точное извлечение (достоверность 6) [68D5EA15] (AR v2)
Копирование... OK
Трек 3
Имя файла R:\Раздача 55\R. Dean Taylor - 2001 - The Essential Collection\03 Ain't it A Sad Thing.wav
Длина предзазора 0:00:00.57
Пиковый уровень 100.0 %
Скорость извлечения 5.5 X
Качество трека 100.0 %
CRC теста 1CCA98F7
CRC копии 1CCA98F7
Точное извлечение (достоверность 6) [EF3566C4] (AR v2)
Копирование... OK
Трек 4
Имя файла R:\Раздача 55\R. Dean Taylor - 2001 - The Essential Collection\04 Gonna Give Her All The Love I Got.wav
Длина предзазора 0:00:00.57
Пиковый уровень 96.5 %
Скорость извлечения 6.0 X
Качество трека 100.0 %
CRC теста E019E0A3
CRC копии E019E0A3
Точное извлечение (достоверность 6) [45F31A78] (AR v2)
Копирование... OK
Трек 5
Имя файла R:\Раздача 55\R. Dean Taylor - 2001 - The Essential Collection\05 There's A Ghost In My House.wav
Длина предзазора 0:00:00.57
Пиковый уровень 100.0 %
Скорость извлечения 5.9 X
Качество трека 100.0 %
CRC теста F3CA3057
CRC копии F3CA3057
Точное извлечение (достоверность 6) [08F0357E] (AR v2)
Копирование... OK
Трек 6
Имя файла R:\Раздача 55\R. Dean Taylor - 2001 - The Essential Collection\06 Don't Fool Around.wav
Длина предзазора 0:00:00.57
Пиковый уровень 67.0 %
Скорость извлечения 4.4 X
Качество трека 99.9 %
CRC теста C2E11A2B
CRC копии C2E11A2B
Точное извлечение (достоверность 6) [6DDAE44C] (AR v2)
Копирование... OK
Трек 7
Имя файла R:\Раздача 55\R. Dean Taylor - 2001 - The Essential Collection\07 Indiana Wants Me.wav
Длина предзазора 0:00:00.57
Пиковый уровень 100.0 %
Скорость извлечения 7.0 X
Качество трека 100.0 %
CRC теста 576B5304
CRC копии 576B5304
Точное извлечение (достоверность 6) [4BF90A80] (AR v2)
Копирование... OK
Трек 8
Имя файла R:\Раздача 55\R. Dean Taylor - 2001 - The Essential Collection\08 Woman Alive.wav
Длина предзазора 0:00:00.57
Пиковый уровень 87.0 %
Скорость извлечения 4.9 X
Качество трека 99.9 %
CRC теста 2130574B
CRC копии 2130574B
Точное извлечение (достоверность 6) [5393762B] (AR v2)
Копирование... OK
Трек 9
Имя файла R:\Раздача 55\R. Dean Taylor - 2001 - The Essential Collection\09 Loves Your Name.wav
Длина предзазора 0:00:00.57
Пиковый уровень 97.6 %
Скорость извлечения 7.0 X
Качество трека 100.0 %
CRC теста 2BA93F8E
CRC копии 2BA93F8E
Точное извлечение (достоверность 6) [C1687BA8] (AR v2)
Копирование... OK
Трек 10
Имя файла R:\Раздача 55\R. Dean Taylor - 2001 - The Essential Collection\10 Taos New Mexico.wav
Длина предзазора 0:00:00.57
Пиковый уровень 100.0 %
Скорость извлечения 7.5 X
Качество трека 100.0 %
CRC теста 5B08F557
CRC копии 5B08F557
Точное извлечение (достоверность 6) [78A8CD68] (AR v2)
Копирование... OK
Трек 11
Имя файла R:\Раздача 55\R. Dean Taylor - 2001 - The Essential Collection\11 Fire And Rain.wav
Длина предзазора 0:00:00.57
Пиковый уровень 100.0 %
Скорость извлечения 7.8 X
Качество трека 100.0 %
CRC теста 7187D3C4
CRC копии 7187D3C4
Точное извлечение (достоверность 6) [6749941B] (AR v2)
Копирование... OK
Трек 12
Имя файла R:\Раздача 55\R. Dean Taylor - 2001 - The Essential Collection\12 Shadow.wav
Длина предзазора 0:00:00.57
Пиковый уровень 87.0 %
Скорость извлечения 7.8 X
Качество трека 100.0 %
CRC теста 0A5EC97A
CRC копии 0A5EC97A
Точное извлечение (достоверность 6) [AB75325D] (AR v2)
Копирование... OK
Трек 13
Имя файла R:\Раздача 55\R. Dean Taylor - 2001 - The Essential Collection\13 Two Of Us.wav
Длина предзазора 0:00:00.57
Пиковый уровень 87.0 %
Скорость извлечения 8.2 X
Качество трека 100.0 %
CRC теста 93FFF401
CRC копии 93FFF401
Точное извлечение (достоверность 6) [90F18EED] (AR v2)
Копирование... OK
Трек 14
Имя файла R:\Раздача 55\R. Dean Taylor - 2001 - The Essential Collection\14 Poor Girl.wav
Длина предзазора 0:00:00.57
Пиковый уровень 100.0 %
Скорость извлечения 8.2 X
Качество трека 100.0 %
CRC теста 4E8CD580
CRC копии 4E8CD580
Точное извлечение (достоверность 6) [6C1EECF3] (AR v2)
Копирование... OK
Трек 15
Имя файла R:\Раздача 55\R. Dean Taylor - 2001 - The Essential Collection\15 Let's Go Somewhere.wav
Длина предзазора 0:00:00.57
Пиковый уровень 100.0 %
Скорость извлечения 8.4 X
Качество трека 100.0 %
CRC теста 7E3DD48F
CRC копии 7E3DD48F
Точное извлечение (достоверность 6) [46B7E241] (AR v2)
Копирование... OK
Трек 16
Имя файла R:\Раздача 55\R. Dean Taylor - 2001 - The Essential Collection\16 Candy Apple Red.wav
Длина предзазора 0:00:00.57
Пиковый уровень 99.1 %
Скорость извлечения 6.7 X
Качество трека 99.9 %
CRC теста 0E527373
CRC копии 0E527373
Точное извлечение (достоверность 6) [59C42726] (AR v2)
Копирование... OK
Трек 17
Имя файла R:\Раздача 55\R. Dean Taylor - 2001 - The Essential Collection\17 Sunday Morning Coming Down.wav
Длина предзазора 0:00:00.57
Пиковый уровень 95.3 %
Скорость извлечения 9.5 X
Качество трека 100.0 %
CRC теста 3C333D45
CRC копии 3C333D45
Точное извлечение (достоверность 6) [81C41CE2] (AR v2)
Копирование... OK
Трек 18
Имя файла R:\Раздача 55\R. Dean Taylor - 2001 - The Essential Collection\18 Just Like In The Movies.wav
Длина предзазора 0:00:00.57
Пиковый уровень 71.3 %
Скорость извлечения 8.9 X
Качество трека 100.0 %
CRC теста 0D85E920
CRC копии 0D85E920
Точное извлечение (достоверность 6) [B2861F29] (AR v2)
Копирование... OK
Трек 19
Имя файла R:\Раздача 55\R. Dean Taylor - 2001 - The Essential Collection\19 My Lady Bug Stay Away From That Beatle.wav
Длина предзазора 0:00:00.57
Пиковый уровень 77.1 %
Скорость извлечения 9.0 X
Качество трека 100.0 %
CRC теста F83F5758
CRC копии F83F5758
Точное извлечение (достоверность 6) [5F7B18AB] (AR v2)
Копирование... OK
Все треки извлечены точно
Ошибок не произошло
Конец отчёта
==== Контрольная сумма отчёта 7B12B632060ABA136E41EEE30A10F360C236DE4F02B374D16C459607543EBAE8 ====
 
Содержание индексной карты (.CUE)
REM GENRE Soul
REM DATE 2001
REM DISCID F20D3613
REM COMMENT "ExactAudioCopy v1.0b3"
CATALOG 0731454451529
PERFORMER "R.Dean Taylor"
TITLE "The Essential Collection"
FILE "01 Gotta See Jane.wav" WAVE
TRACK 01 AUDIO
TITLE "Gotta See Jane"
PERFORMER "R.Dean Taylor"
ISRC H2EO16882685
INDEX 01 00:00:00
TRACK 02 AUDIO
TITLE "Back Street"
PERFORMER "R.Dean Taylor"
ISRC H2EO10110682
INDEX 00 03:07:19
FILE "02 Back Street.wav" WAVE
INDEX 01 00:00:00
TRACK 03 AUDIO
TITLE "Ain't it A Sad Thing"
PERFORMER "R.Dean Taylor"
ISRC H2EO10110683
INDEX 00 03:35:66
FILE "03 Ain't it A Sad Thing.wav" WAVE
INDEX 01 00:00:00
TRACK 04 AUDIO
TITLE "Gonna Give Her All The Love I Got"
PERFORMER "R.Dean Taylor"
ISRC H2EO10110684
INDEX 00 02:27:53
FILE "04 Gonna Give Her All The Love I Got.wav" WAVE
INDEX 01 00:00:00
TRACK 05 AUDIO
TITLE "There's A Ghost In My House"
PERFORMER "R.Dean Taylor"
ISRC H2EO16700533
INDEX 00 02:51:36
FILE "05 There's A Ghost In My House.wav" WAVE
INDEX 01 00:00:00
TRACK 06 AUDIO
TITLE "Don't Fool Around"
PERFORMER "R.Dean Taylor"
ISRC H2EO10110685
INDEX 00 02:13:39
FILE "06 Don't Fool Around.wav" WAVE
INDEX 01 00:00:00
TRACK 07 AUDIO
TITLE "Indiana Wants Me"
PERFORMER "R.Dean Taylor"
ISRC H2EO10300772
INDEX 00 02:28:49
FILE "07 Indiana Wants Me.wav" WAVE
INDEX 01 00:00:00
TRACK 08 AUDIO
TITLE "Woman Alive"
PERFORMER "R.Dean Taylor"
ISRC H2EO10110686
INDEX 00 03:46:02
FILE "08 Woman Alive.wav" WAVE
INDEX 01 00:00:00
TRACK 09 AUDIO
TITLE "Loves Your Name"
PERFORMER "R.Dean Taylor"
ISRC H2EO10110687
INDEX 00 02:31:70
FILE "09 Loves Your Name.wav" WAVE
INDEX 01 00:00:00
TRACK 10 AUDIO
TITLE "Taos New Mexico"
PERFORMER "R.Dean Taylor"
ISRC H2EO10110688
INDEX 00 02:18:73
FILE "10 Taos New Mexico.wav" WAVE
INDEX 01 00:00:00
TRACK 11 AUDIO
TITLE "Fire And Rain"
PERFORMER "R.Dean Taylor"
ISRC H2EO10110689
INDEX 00 03:10:19
FILE "11 Fire And Rain.wav" WAVE
INDEX 01 00:00:00
TRACK 12 AUDIO
TITLE "Shadow"
PERFORMER "R.Dean Taylor"
ISRC H2EO10110690
INDEX 00 02:57:23
FILE "12 Shadow.wav" WAVE
INDEX 01 00:00:00
TRACK 13 AUDIO
TITLE "Two Of Us"
PERFORMER "R.Dean Taylor"
ISRC H2EO10110691
INDEX 00 02:49:03
FILE "13 Two Of Us.wav" WAVE
INDEX 01 00:00:00
TRACK 14 AUDIO
TITLE "Poor Girl"
PERFORMER "R.Dean Taylor"
ISRC H2EO10110692
INDEX 00 03:05:21
FILE "14 Poor Girl.wav" WAVE
INDEX 01 00:00:00
TRACK 15 AUDIO
TITLE "Let's Go Somewhere"
PERFORMER "R.Dean Taylor"
ISRC H2EO10110693
INDEX 00 02:43:08
FILE "15 Let's Go Somewhere.wav" WAVE
INDEX 01 00:00:00
TRACK 16 AUDIO
TITLE "Candy Apple Red"
PERFORMER "R.Dean Taylor"
ISRC H2EO10110694
INDEX 00 02:52:44
FILE "16 Candy Apple Red.wav" WAVE
INDEX 01 00:00:00
TRACK 17 AUDIO
TITLE "Sunday Morning Coming Down"
PERFORMER "R.Dean Taylor"
ISRC H2EO10110695
INDEX 00 03:33:01
FILE "17 Sunday Morning Coming Down.wav" WAVE
INDEX 01 00:00:00
TRACK 18 AUDIO
TITLE "Just Like In The Movies"
PERFORMER "R.Dean Taylor"
ISRC H2EO10110696
INDEX 00 04:13:62
FILE "18 Just Like In The Movies.wav" WAVE
INDEX 01 00:00:00
TRACK 19 AUDIO
TITLE "My Lady Bug Stay Away From That Beatle"
PERFORMER "R.Dean Taylor"
ISRC H2EO10110697
INDEX 00 02:30:37
FILE "19 My Lady Bug Stay Away From That Beatle.wav" WAVE
INDEX 01 00:00:00
Приватный:
Нет (DHT включён)
Размер:
344.17 Мб (360,886,035 байт) » файлов: 29
Участники:
0 раздают, 0 качают (0 участников всего)
Внешние участники:
1 раздают, 0 качают (1 участников всего) [ Обновить ]
Есть вопросы - пишите личное сообщение пользователю M0p94ok.
08:35
54
Нет комментариев. Ваш будет первым!