Поиск

(Funk, Soul) [CD] Rosie Gaines - Caring (1985) - 2005, FLAC (tracks+.cue), lossless

(Funk, Soul) [CD] Rosie Gaines - Caring (1985) - 2005, FLAC (tracks+.cue), lossless
Треклист:
Rosie Gaines - Caring (1985) Жанр: Funk, Soul
Носитель: CD
Страна-производитель диска: Japan
Год издания: 2005
Издатель (лейбл): Sony Music
Номер по каталогу: MHCP-862
Аудиокодек: FLAC (*.flac)
Тип рипа: tracks+.cue
Битрейт аудио: lossless
Продолжительность: 52:09
Rip by JET 1
Наличие сканов в содержимом раздачи: да
Треклист:
01. Dance All Night Long (5:55)
02. I've Gone Too Far (4:41)
03. Skool-Ology (3:59)
04. Caring (6:45)
05. Frustration (4:17)
06. Wake Up (5:18)
07. Good Times (5:22)
08. What Are We Coming To (3:56)
09. Innocent Girl (3:28)
10. Crazy (4:26)
11. In A Jam (4:01)
Caring is the debut album by Rosie Gaines, released October 8, 1985.
 
 
Лог создания рипа
Exact Audio Copy V1.0 beta 3 from 29. August 2011
EAC extraction logfile from 9. January 2016, 15:39
Rosie Gaines / Caring
Used drive : GENERIC CDRCB05 Adapter: 4 ID: 0
Read mode : Secure
Utilize accurate stream : Yes
Defeat audio cache : Yes
Make use of C2 pointers : No
Read offset correction : 102
Overread into Lead-In and Lead-Out : No
Fill up missing offset samples with silence : Yes
Delete leading and trailing silent blocks : No
Null samples used in CRC calculations : Yes
Used interface : Native Win32 interface for Win NT & 2000
Gap handling : Appended to previous track
Used output format : User Defined Encoder
Selected bitrate : 1024 kBit/s
Quality : High
Add ID3 tag : No
Command line compressor : C:\Program Files\FLAC\flac.exe
Additional command line options : -8 -V -T "ARTIST=%artist%" -T "TITLE=%title%" -T "ALBUM=%albumtitle%" -T "DATE=%year%" -T "TRACKNUMBER=%tracknr%" -T "GENRE=%genre%" -T "PERFORMER=%albuminterpret%" -T "COMPOSER=%composer%" %haslyrics%--tag-from-file=LYRICS="%lyricsfile%"%haslyrics% -T "ALBUMARTIST=%albumartist%" -T "DISCNUMBER=%cdnumber%" -T "TOTALDISCS=%totalcds%" -T "TOTALTRACKS=%numtracks%" -T "COMMENT=%comment%" %source% -o %dest%
TOC of the extracted CD
Track | Start | Length | Start sector | End sector
---------------------------------------------------------
1 | 0:00.00 | 5:55.15 | 0 | 26639
2 | 5:55.15 | 4:41.20 | 26640 | 47734
3 | 10:36.35 | 3:59.07 | 47735 | 65666
4 | 14:35.42 | 6:44.70 | 65667 | 96036
5 | 21:20.37 | 4:16.63 | 96037 | 115299
6 | 25:37.25 | 5:18.07 | 115300 | 139156
7 | 30:55.32 | 5:21.68 | 139157 | 163299
8 | 36:17.25 | 3:56.32 | 163300 | 181031
9 | 40:13.57 | 3:27.53 | 181032 | 196609
10 | 43:41.35 | 4:26.05 | 196610 | 216564
11 | 48:07.40 | 4:01.00 | 216565 | 234639
Track 1
Filename G:\POSTS\Rosie Gaines - Caring (1985) [2005 Japan Mini-CD]\01 - Dance All Night Long.wav
Pre-gap length 0:00:02.00
Peak level 99.8 %
Extraction speed 2.2 X
Track quality 99.9 %
Test CRC F3520DD8
Copy CRC F3520DD8
Accurately ripped (confidence 1) [BDA18520] (AR v2)
Copy OK
Track 2
Filename G:\POSTS\Rosie Gaines - Caring (1985) [2005 Japan Mini-CD]\02 - I've Gone Too Far.wav
Pre-gap length 0:00:01.45
Peak level 99.8 %
Extraction speed 2.8 X
Track quality 100.0 %
Test CRC 1C266FBC
Copy CRC 1C266FBC
Accurately ripped (confidence 1) [9160364F] (AR v2)
Copy OK
Track 3
Filename G:\POSTS\Rosie Gaines - Caring (1985) [2005 Japan Mini-CD]\03 - Skool-Ology.wav
Peak level 99.8 %
Extraction speed 2.8 X
Track quality 100.0 %
Test CRC BC4A59B1
Copy CRC BC4A59B1
Accurately ripped (confidence 1) [41D14DE7] (AR v2)
Copy OK
Track 4
Filename G:\POSTS\Rosie Gaines - Caring (1985) [2005 Japan Mini-CD]\04 - Caring.wav
Peak level 99.8 %
Extraction speed 3.2 X
Track quality 100.0 %
Test CRC E9A1F28E
Copy CRC E9A1F28E
Accurately ripped (confidence 1) [EFEDAAC3] (AR v2)
Copy OK
Track 5
Filename G:\POSTS\Rosie Gaines - Caring (1985) [2005 Japan Mini-CD]\05 - Frustration.wav
Pre-gap length 0:00:01.42
Peak level 99.8 %
Extraction speed 3.3 X
Track quality 100.0 %
Test CRC 9E20B0C4
Copy CRC 9E20B0C4
Accurately ripped (confidence 1) [A34E23F4] (AR v2)
Copy OK
Track 6
Filename G:\POSTS\Rosie Gaines - Caring (1985) [2005 Japan Mini-CD]\06 - Wake Up.wav
Peak level 99.8 %
Extraction speed 3.3 X
Track quality 100.0 %
Test CRC 91B8F65E
Copy CRC 91B8F65E
Accurately ripped (confidence 1) [AF41515A] (AR v2)
Copy OK
Track 7
Filename G:\POSTS\Rosie Gaines - Caring (1985) [2005 Japan Mini-CD]\07 - Good Times.wav
Peak level 99.8 %
Extraction speed 4.0 X
Track quality 100.0 %
Test CRC A7202827
Copy CRC A7202827
Accurately ripped (confidence 1) [1900020E] (AR v2)
Copy OK
Track 8
Filename G:\POSTS\Rosie Gaines - Caring (1985) [2005 Japan Mini-CD]\08 - What Are We Coming To.wav
Peak level 99.8 %
Extraction speed 3.6 X
Track quality 100.0 %
Test CRC CB4807B3
Copy CRC CB4807B3
Accurately ripped (confidence 1) [B180C5CD] (AR v2)
Copy OK
Track 9
Filename G:\POSTS\Rosie Gaines - Caring (1985) [2005 Japan Mini-CD]\09 - Innocent Girl.wav
Peak level 99.8 %
Extraction speed 4.0 X
Track quality 100.0 %
Test CRC 1F67B2A7
Copy CRC 1F67B2A7
Accurately ripped (confidence 1) [007466C3] (AR v2)
Copy OK
Track 10
Filename G:\POSTS\Rosie Gaines - Caring (1985) [2005 Japan Mini-CD]\10 - Crazy.wav
Pre-gap length 0:00:02.68
Peak level 99.8 %
Extraction speed 4.3 X
Track quality 100.0 %
Test CRC 1DBCAEFE
Copy CRC 1DBCAEFE
Accurately ripped (confidence 1) [AEAB8310] (AR v2)
Copy OK
Track 11
Filename G:\POSTS\Rosie Gaines - Caring (1985) [2005 Japan Mini-CD]\11 - In A Jam.wav
Pre-gap length 0:00:29.58
Peak level 99.8 %
Extraction speed 3.9 X
Track quality 99.9 %
Test CRC 7E8D5E6A
Copy CRC 7E8D5E6A
Accurately ripped (confidence 1) [1DFA44E0] (AR v2)
Copy OK
All tracks accurately ripped
No errors occurred
End of status report
==== Log checksum B761FD76BE7BDEF74B9936BD19E62C54B33694E597D051EE1596A3EC700491FF ====
 
Содержание индексной карты (.CUE)
REM GENRE Soul
REM DATE 1985
REM DISCID B30C380B
REM COMMENT "ExactAudioCopy v1.0b3"
PERFORMER "Rosie Gaines"
TITLE "Caring"
FILE "01 - Dance All Night Long.wav" WAVE
TRACK 01 AUDIO
TITLE "Dance All Night Long"
PERFORMER "Rosie Gaines"
INDEX 01 00:00:00
TRACK 02 AUDIO
TITLE "I've Gone Too Far"
PERFORMER "Rosie Gaines"
INDEX 00 05:53:45
FILE "02 - I've Gone Too Far.wav" WAVE
INDEX 01 00:00:00
FILE "03 - Skool-Ology.wav" WAVE
TRACK 03 AUDIO
TITLE "Skool-Ology"
PERFORMER "Rosie Gaines"
INDEX 01 00:00:00
FILE "04 - Caring.wav" WAVE
TRACK 04 AUDIO
TITLE "Caring"
PERFORMER "Rosie Gaines"
INDEX 01 00:00:00
TRACK 05 AUDIO
TITLE "Frustration"
PERFORMER "Rosie Gaines"
INDEX 00 06:43:28
FILE "05 - Frustration.wav" WAVE
INDEX 01 00:00:00
FILE "06 - Wake Up.wav" WAVE
TRACK 06 AUDIO
TITLE "Wake Up"
PERFORMER "Rosie Gaines"
INDEX 01 00:00:00
FILE "07 - Good Times.wav" WAVE
TRACK 07 AUDIO
TITLE "Good Times"
PERFORMER "Rosie Gaines"
INDEX 01 00:00:00
FILE "08 - What Are We Coming To.wav" WAVE
TRACK 08 AUDIO
TITLE "What Are We Coming To"
PERFORMER "Rosie Gaines"
INDEX 01 00:00:00
FILE "09 - Innocent Girl.wav" WAVE
TRACK 09 AUDIO
TITLE "Innocent Girl"
PERFORMER "Rosie Gaines"
INDEX 01 00:00:00
TRACK 10 AUDIO
TITLE "Crazy"
PERFORMER "Rosie Gaines"
INDEX 00 03:24:60
FILE "10 - Crazy.wav" WAVE
INDEX 01 00:00:00
TRACK 11 AUDIO
TITLE "In A Jam"
PERFORMER "Rosie Gaines"
INDEX 00 03:56:22
FILE "11 - In A Jam.wav" WAVE
INDEX 01 00:00:00
Приватный:
Нет (DHT включён)
Размер:
469.47 Мб (492,280,080 байт) » файлов: 27
Участники:
0 раздают, 0 качают (0 участников всего)
Внешние участники:
1 раздают, 0 качают (1 участников всего) [ Обновить ]
No seeders - write a personal message to user M0p94ok. Нет сидеров - пишите личное сообщение пользователю M0p94ok.
09:27
99
Нет комментариев. Ваш будет первым!