Поиск

(Jazz-Funk, Soul) [CD] Richard Tee - Real Time - 1992 (2012 Japan Edition), FLAC (tracks+.cue), lossless

(Jazz-Funk, Soul) [CD] Richard Tee - Real Time - 1992 (2012 Japan Edition), FLAC (tracks+.cue), lossless
Треклист:
Richard Tee - Real Time
Жанр: Jazz-Funk, Soul
Носитель: CD
Страна-производитель диска (релиза): Япония
Год издания: 1992 (2012)
Издатель (лейбл): One Voice/Videoarts Music Inc.
Номер по каталогу: VACM-7096
Страна исполнителя (группы): США
Аудиокодек: FLAC (*.flac)
Тип рипа: tracks+.cue
Битрейт аудио: lossless
Продолжительность: 54:25
Источник (релизер): tiburon
Наличие сканов в содержимом раздачи: да
Треклист:
01. That's the Way of the World (White-Stepney-White) - 7:22
02. The Way (E.S.Tee) - 4:43
03. Gone Too Soon (Grossman-Hohan) - 3:13
04. My Funny Valentine (Rodgers-Hart) - 4:54
05. I Miss You My Love (Satten) - 4:21
06. Yo, Romeo (R.Tee) - 4:52
07. In Real Time (R.Tee-E.S.Tee) - 4:09
08. Send One Your Love (Wonder) - 4:10
09. Take the "A" Train (Strayhorn) - 8:28
10. A Secret Place (R.Tee-Likes) - 4:17
11. Without You (R.Tee) - 3:56
 
Лог создания рипа
Exact Audio Copy V1.1 from 23. June 2015
EAC extraction logfile from 13. January 2016, 10:36
Richard Tee / Real Time
Used drive : HL-DT-STDVDRAM GH20NS10 Adapter: 1 ID: 0
Read mode : Secure
Utilize accurate stream : Yes
Defeat audio cache : Yes
Make use of C2 pointers : No
Read offset correction : 667
Overread into Lead-In and Lead-Out : No
Fill up missing offset samples with silence : Yes
Delete leading and trailing silent blocks : No
Null samples used in CRC calculations : Yes
Used interface : Native Win32 interface for Win NT & 2000
Gap handling : Appended to previous track
Used output format : User Defined Encoder
Selected bitrate : 1024 kBit/s
Quality : High
Add ID3 tag : No
Command line compressor : C:\Program Files\Exact Audio Copy\Flac\flac.exe
Additional command line options : -8 -V -T "ARTIST=%artist%" -T "TITLE=%title%" -T "ALBUM=%albumtitle%" -T "DATE=%year%" -T "TRACKNUMBER=%tracknr%" -T "TOTALTRACKS=%numtracks%" -T "GENRE=%genre%" -T "ALBUMARTIST=%albumartist%" -T "ALBUM ARTIST=%albumartist%" -T "COMMENT=EAC Secure Mode, Test & Copy, AccurateRip, FLAC -8" %source%
TOC of the extracted CD
Track | Start | Length | Start sector | End sector
---------------------------------------------------------
1 | 0:00.00 | 7:22.35 | 0 | 33184
2 | 7:22.35 | 4:43.27 | 33185 | 54436
3 | 12:05.62 | 3:12.38 | 54437 | 68874
4 | 15:18.25 | 4:53.67 | 68875 | 90916
5 | 20:12.17 | 4:20.48 | 90917 | 110464
6 | 24:32.65 | 4:52.35 | 110465 | 132399
7 | 29:25.25 | 4:09.25 | 132400 | 151099
8 | 33:34.50 | 4:10.10 | 151100 | 169859
9 | 37:44.60 | 8:27.42 | 169860 | 207926
10 | 46:12.27 | 4:17.28 | 207927 | 227229
11 | 50:29.55 | 3:56.20 | 227230 | 244949
Track 1
Filename D:\Richard Tee - Real Time (1992) [FLAC]\01 - That's The Way Of The World.wav
Pre-gap length 0:00:02.00
Peak level 99.2 %
Extraction speed 4.7 X
Track quality 100.0 %
Test CRC 67FEB7FD
Copy CRC 67FEB7FD
Cannot be verified as accurate (confidence 3) [382F8400], AccurateRip returned [3AC7442B] (AR v2)
Copy OK
Track 2
Filename D:\Richard Tee - Real Time (1992) [FLAC]\02 - The Way.wav
Pre-gap length 0:00:00.50
Peak level 99.2 %
Extraction speed 5.3 X
Track quality 100.0 %
Test CRC 3FD1FD0D
Copy CRC 3FD1FD0D
Cannot be verified as accurate (confidence 3) [8394162C], AccurateRip returned [577F1F83] (AR v2)
Copy OK
Track 3
Filename D:\Richard Tee - Real Time (1992) [FLAC]\03 - Gone Too Soon.wav
Pre-gap length 0:00:02.22
Peak level 85.8 %
Extraction speed 5.3 X
Track quality 100.0 %
Test CRC 9CAED5ED
Copy CRC 9CAED5ED
Cannot be verified as accurate (confidence 3) [DE13E138], AccurateRip returned [AB3FE918] (AR v2)
Copy OK
Track 4
Filename D:\Richard Tee - Real Time (1992) [FLAC]\04 - My Funny Valentine.wav
Pre-gap length 0:00:01.08
Peak level 99.2 %
Extraction speed 6.0 X
Track quality 100.0 %
Test CRC 5512FC86
Copy CRC 5512FC86
Cannot be verified as accurate (confidence 3) [661B6F77], AccurateRip returned [4DCC529F] (AR v2)
Copy OK
Track 5
Filename D:\Richard Tee - Real Time (1992) [FLAC]\05 - I Miss You My Love.wav
Pre-gap length 0:00:01.32
Peak level 97.5 %
Extraction speed 6.2 X
Track quality 100.0 %
Test CRC 41211FF4
Copy CRC 41211FF4
Cannot be verified as accurate (confidence 3) [7F85B581], AccurateRip returned [7B5446C1] (AR v2)
Copy OK
Track 6
Filename D:\Richard Tee - Real Time (1992) [FLAC]\06 - Yo, Romeo.wav
Pre-gap length 0:00:01.20
Peak level 99.2 %
Extraction speed 5.6 X
Track quality 99.9 %
Test CRC 647FFF4D
Copy CRC 647FFF4D
Cannot be verified as accurate (confidence 3) [4DC6015B], AccurateRip returned [6D60C613] (AR v2)
Copy OK
Track 7
Filename D:\Richard Tee - Real Time (1992) [FLAC]\07 - In Real Time.wav
Pre-gap length 0:00:00.55
Peak level 99.2 %
Extraction speed 5.6 X
Track quality 99.9 %
Test CRC 3D95C336
Copy CRC 3D95C336
Cannot be verified as accurate (confidence 3) [569A2D3A], AccurateRip returned [0EC08B1F] (AR v2)
Copy OK
Track 8
Filename D:\Richard Tee - Real Time (1992) [FLAC]\08 - Send One Your Love.wav
Pre-gap length 0:00:01.00
Peak level 99.2 %
Extraction speed 6.8 X
Track quality 100.0 %
Test CRC AC1533FE
Copy CRC AC1533FE
Cannot be verified as accurate (confidence 3) [4349C0DD], AccurateRip returned [28C7D6C1] (AR v2)
Copy OK
Track 9
Filename D:\Richard Tee - Real Time (1992) [FLAC]\09 - Take The A Train.wav
Pre-gap length 0:00:01.35
Peak level 99.2 %
Extraction speed 6.7 X
Track quality 100.0 %
Test CRC 6E2B3E08
Copy CRC 6E2B3E08
Cannot be verified as accurate (confidence 3) [769EB38F], AccurateRip returned [4D451D88] (AR v2)
Copy OK
Track 10
Filename D:\Richard Tee - Real Time (1992) [FLAC]\10 - A Secret Place.wav
Pre-gap length 0:00:00.35
Peak level 99.2 %
Extraction speed 6.0 X
Track quality 100.0 %
Test CRC 6E73BD4B
Copy CRC 6E73BD4B
Cannot be verified as accurate (confidence 3) [1AA0A70E], AccurateRip returned [C552D097] (AR v2)
Copy OK
Track 11
Filename D:\Richard Tee - Real Time (1992) [FLAC]\11 - Without You.wav
Pre-gap length 0:00:01.25
Peak level 99.2 %
Extraction speed 7.5 X
Track quality 100.0 %
Test CRC C32472FE
Copy CRC C32472FE
Cannot be verified as accurate (confidence 3) [E714AA80], AccurateRip returned [ADD60E9E] (AR v2)
Copy OK
No tracks could be verified as accurate
You may have a different pressing from the one(s) in the database
No errors occurred
End of status report
---- CUETools DB Plugin V2.1.6
[CTDB TOCID: xcpOffLEtrbN9Y1HECMDYg4XI8g-] found
Submit result: xcpOffLEtrbN9Y1HECMDYg4XI8g- has been confirmed
Track | CTDB Status
1 | (6/6) Accurately ripped
2 | (6/6) Accurately ripped
3 | (6/6) Accurately ripped
4 | (6/6) Accurately ripped
5 | (6/6) Accurately ripped
6 | (6/6) Accurately ripped
7 | (6/6) Accurately ripped
8 | (6/6) Accurately ripped
9 | (6/6) Accurately ripped
10 | (6/6) Accurately ripped
11 | (6/6) Accurately ripped
==== Log checksum 7D9AB80201D28E3C8805B6DACB5F238DE91C0572FF57C674FB653F442B90906B ====
 
Содержание индексной карты (.CUE)
REM GENRE Jazz
REM DATE 1992
REM DISCID 8A0CC20B
REM COMMENT "ExactAudioCopy v1.1"
PERFORMER "Richard Tee"
TITLE "Real Time"
FILE "01 - That's The Way Of The World.wav" WAVE
TRACK 01 AUDIO
TITLE "That's The Way Of The World"
PERFORMER "Richard Tee"
INDEX 01 00:00:00
TRACK 02 AUDIO
TITLE "The Way"
PERFORMER "Richard Tee"
INDEX 00 07:21:60
FILE "02 - The Way.wav" WAVE
INDEX 01 00:00:00
TRACK 03 AUDIO
TITLE "Gone Too Soon"
PERFORMER "Richard Tee"
INDEX 00 04:41:05
FILE "03 - Gone Too Soon.wav" WAVE
INDEX 01 00:00:00
TRACK 04 AUDIO
TITLE "My Funny Valentine"
PERFORMER "Richard Tee"
INDEX 00 03:11:30
FILE "04 - My Funny Valentine.wav" WAVE
INDEX 01 00:00:00
TRACK 05 AUDIO
TITLE "I Miss You My Love"
PERFORMER "Richard Tee"
INDEX 00 04:52:35
FILE "05 - I Miss You My Love.wav" WAVE
INDEX 01 00:00:00
TRACK 06 AUDIO
TITLE "Yo, Romeo"
PERFORMER "Richard Tee"
INDEX 00 04:19:28
FILE "06 - Yo, Romeo.wav" WAVE
INDEX 01 00:00:00
TRACK 07 AUDIO
TITLE "In Real Time"
PERFORMER "Richard Tee"
INDEX 00 04:51:55
FILE "07 - In Real Time.wav" WAVE
INDEX 01 00:00:00
TRACK 08 AUDIO
TITLE "Send One Your Love"
PERFORMER "Richard Tee"
INDEX 00 04:08:25
FILE "08 - Send One Your Love.wav" WAVE
INDEX 01 00:00:00
TRACK 09 AUDIO
TITLE "Take The A Train"
PERFORMER "Richard Tee"
INDEX 00 04:08:50
FILE "09 - Take The A Train.wav" WAVE
INDEX 01 00:00:00
TRACK 10 AUDIO
TITLE "A Secret Place"
PERFORMER "Richard Tee"
INDEX 00 08:27:07
FILE "10 - A Secret Place.wav" WAVE
INDEX 01 00:00:00
TRACK 11 AUDIO
TITLE "Without You"
PERFORMER "Richard Tee"
INDEX 00 04:16:03
FILE "11 - Without You.wav" WAVE
INDEX 01 00:00:00
 
Отчет CUETools
[CUETools log; Date: 13.01.2016 18:03:37; Version: 2.1.5]
[CTDB TOCID: xcpOffLEtrbN9Y1HECMDYg4XI8g-] found.
Track | CTDB Status
1 | (7/7) Accurately ripped
2 | (7/7) Accurately ripped
3 | (7/7) Accurately ripped
4 | (7/7) Accurately ripped
5 | (7/7) Accurately ripped
6 | (7/7) Accurately ripped
7 | (7/7) Accurately ripped
8 | (7/7) Accurately ripped
9 | (7/7) Accurately ripped
10 | (7/7) Accurately ripped
11 | (7/7) Accurately ripped
[AccurateRip ID: 0016c192-00c363e9-8a0cc20b] found.
Track [ CRC | V2 ] Status
01 [7b5050cb|382f8400] (0+0/8) No match
02 [9c655e1a|8394162c] (0+0/8) No match
03 [c015b2f6|de13e138] (0+0/8) No match
04 [bee052f2|661b6f77] (0+0/8) No match
05 [507d350a|7f85b581] (0+0/8) No match
06 [2c1574ea|4dc6015b] (0+0/8) No match
07 [1d621e35|569a2d3a] (0+0/8) No match
08 [3cbf0922|4349c0dd] (0+0/8) No match
09 [ac78ad12|769eb38f] (0+0/8) No match
10 [264f2bee|1aa0a70e] (0+0/8) No match
11 [470a8f48|e714aa80] (0+0/8) No match
Offsetted by 6:
01 [7a6a1db5] (2/8) Accurately ripped
02 [c543582e] (2/8) Accurately ripped
03 [46f4854a] (2/8) Accurately ripped
04 [1530da5e] (2/8) Accurately ripped
05 [0c46d2b0] (2/8) Accurately ripped
06 [27279f80] (2/8) Accurately ripped
07 [0ae7c28f] (2/8) Accurately ripped
08 [81072192] (2/8) Accurately ripped
09 [7e143676] (2/8) Accurately ripped
10 [5ea7ab50] (2/8) Accurately ripped
11 [bc9f2020] (2/8) Accurately ripped
Offsetted by 670:
01 [16e6b2dd] (0/8) No match (V2 was not tested)
02 [6fe3737e] (0/8) No match (V2 was not tested)
03 [3f47719a] (0/8) No match (V2 was not tested)
04 [baab650e] (0/8) No match (V2 was not tested)
05 [3a19a3c8] (0/8) No match (V2 was not tested)
06 [5b020858] (0/8) No match (V2 was not tested)
07 [b8ad7977] (0/8) No match (V2 was not tested)
08 [05870752] (0/8) No match (V2 was not tested)
09 [6ffb9b06] (0/8) No match (V2 was not tested)
10 [ba3ebc58] (0/8) No match (V2 was not tested)
11 [e62dbd80] (0/8) No match (V2 was not tested)
Track Peak [ CRC32 ] [W/O NULL] [ LOG ]
-- 99,2 [9B83B835] [514637FB]
01 99,2 [67FEB7FD] [D850276E] CRC32
02 99,2 [3FD1FD0D] [C2B9339C] CRC32
03 85,8 [9CAED5ED] [A1727A25] CRC32
04 99,2 [5512FC86] [23912440] CRC32
05 97,5 [41211FF4] [B175B6BC] CRC32
06 99,2 [647FFF4D] [75A3699E] CRC32
07 99,2 [3D95C336] [68CD5E30] CRC32
08 99,2 [AC1533FE] [44238EDB] CRC32
09 99,2 [6E2B3E08] [BEC009CD] CRC32
10 99,2 [6E73BD4B] [05335422] CRC32
11 99,2 [C32472FE] [6583A86B] CRC32
 
AllMusic Review by Dave Nathan
Richard Tee appeared on more than 400 albums as a sideman, including longtime stints with Roberta Flack and Aretha Franklin. It should be no surprise, then, that the music heard on this last album before his death in 1993 should have elements of soul, funk, and gospel. Real Time is what could be called a swaying album. It can be danced to, but the performances are so low-key and sincere that dancers would only have to stay in place and sway to the music. In addition to his usual spells on the piano and keyboards, Tee sings in a slow, soulful voice that adds to the peacefulness of the proceedings. There's no shouting on this disk. The vocalizing is especially ear-catching on "I Miss You My Love" and "Without You." Even on "That's the Way of the World," a funky piece where the pace picks up a bit and the rhythm is more pointed, considerable restraint by the players is shown. This track features smoking guitar by Eric Gale. As on many of the cuts, strings are present, and they contrast nicely with the funky goings-on. Not all of the tunes are Tee originals; there are a couple of standards. On one, "My Funny Valentine," the demeanor changes considerably. Tee steps back from his keyboards as he improvises around the melody line on piano. "Take the 'A' Train" has classical overtones, with rippling trills, runs, and arpeggios letting snippets of the melody sneak in during this eight-and-a-half-minute track that explores variations on a theme. With longtime associate Steve Gadd on drums and Will Lee on bass, augmented from time to time by horns and guitar, this is a fine album by a performer who had more influence on fellow musicians than most realize.
 
Состав
Richard Tee - piano, keyboards, vocals
Steve Gadd - drums
Eric Gale (#1,4-6,10), John Tropea (#2,7,8,10,11) - guitar
Will Lee - bass
Ralph MacDonald - percussion
Lew Soloff, Chris Botti - trumpet, flugelhorn
Keith O'Quinn - trombone
Lenny Pickett (#2,6,10) - tenor saxophone, alto saxophone
Lawrence Feldman - tenor saxophone
Ronnie Cuber - baritone saxophone
Al Brown, Gerald Tarack, Sanford Allen, Max Allen, Marti Sweet, Sandra Park, John Pintavalle, Cecelia Hobbs, Winterton Gravey, Elena Barere, Charles Libove - violin
Kermit Moore, Jesse Levy, Eugene Moye, Mark Shuman - cello
Gene Orloff - concertmaster
Recorded at Clinton Recording Studios, New York in May-June, 1992.
Приватный:
Нет (DHT включён)
Размер:
308.38 Мб (323,354,819 байт) » файлов: 23
Участники:
0 раздают, 0 качают (0 участников всего)
Внешние участники:
3 раздают, 1 качают (4 участников всего) [ Обновить ]
Есть вопросы - пишите личное сообщение пользователю M0p94ok.
09:28
61
Нет комментариев. Ваш будет первым!