Поиск

(Jazz-Funk, Contemporary Jazz) [CD] Gap Mangione - Diana in the Autumn Wind - 1968 (2003), FLAC (tracks+.cue), lossless

(Jazz-Funk, Contemporary Jazz) [CD] Gap Mangione - Diana in the Autumn Wind - 1968 (2003), FLAC (tracks+.cue), lossless
Треклист:
Gap Mangione - Diana in the Autumn Wind
Жанр: Jazz-Funk, Contemporary Jazz
Носитель: CD
Страна-производитель диска (релиза): США
Год издания: 1968 (2003)
Издатель (лейбл): Josh Music Inc.
Номер по каталогу: JM 2003
Аудиокодек: FLAC (*.flac)
Тип рипа: tracks+.cue
Битрейт аудио: lossless
Продолжительность: 41:50
Источник (релизер): kctrojan (what)
Наличие сканов в содержимом раздачи: да
Треклист:
01. Boy with Toys (C. Mangione) - 2:46
02. Diana in the Autumn Wind (C. Mangione) - 3:01
03. Long Hair Soulful (C. Mangione) - 4:39
04. Yesterday (Lennon-McCartney) - 4:00
05. The XIth Commandment (C. Mangione-G. Mangione) - 3:27
06. St. Thomas (Rollins) - 3:10
07. You're Nobody Till Somebody Loves You (Morgan-Stock-Cavanaugh) - 3:08
08. Pond with Swans (C. Mangione) - 2:41
09. You Are My Sunshine (Davis-Mitchell) - 2:59
10. Free Again (Caforna-Baselli-Jourdan) - 3:07
11. Dream On Little Dreamer (Crutchfield-Burch) - 2:48
12. Graduate Medley: Scarborough Fair/The Sounds of Silence/Mrs. Robinson (Simon-Garfunkel) - 6:04
 
Лог создания рипа
Exact Audio Copy V1.1 from 23. June 2015
EAC extraction logfile from 10. January 2016, 1:44
Gap Mangione / Diana In The Autumn Wind
Used drive : MATSHITADVD-RAM UJ880AS Adapter: 1 ID: 0
Read mode : Secure
Utilize accurate stream : Yes
Defeat audio cache : Yes
Make use of C2 pointers : No
Read offset correction : 102
Overread into Lead-In and Lead-Out : No
Fill up missing offset samples with silence : Yes
Delete leading and trailing silent blocks : No
Null samples used in CRC calculations : Yes
Used interface : Native Win32 interface for Win NT & 2000
Gap handling : Appended to previous track
Used output format : User Defined Encoder
Selected bitrate : 1024 kBit/s
Quality : High
Add ID3 tag : No
Command line compressor : C:\Program Files (x86)\Exact Audio Copy\Flac\flac.exe
Additional command line options : -8 -V -T "ARTIST=%artist%" -T "TITLE=%title%" -T "ALBUM=%albumtitle%" -T "DATE=%year%" -T "TRACKNUMBER=%tracknr%" -T "GENRE=%genre%" -T "PERFORMER=%albuminterpret%" -T "COMPOSER=%composer%" %haslyrics%--tag-from-file=LYRICS="%lyricsfile%"%haslyrics% -T "ALBUMARTIST=%albumartist%" -T "DISCNUMBER=%cdnumber%" -T "TOTALDISCS=%totalcds%" -T "TOTALTRACKS=%numtracks%" -T "COMMENT=%comment%" %source% -o %dest%
TOC of the extracted CD
Track | Start | Length | Start sector | End sector
---------------------------------------------------------
1 | 0:00.00 | 2:45.54 | 0 | 12428
2 | 2:45.54 | 3:00.63 | 12429 | 25991
3 | 5:46.42 | 4:39.14 | 25992 | 46930
4 | 10:25.56 | 4:00.22 | 46931 | 64952
5 | 14:26.03 | 3:27.16 | 64953 | 80493
6 | 17:53.19 | 3:09.50 | 80494 | 94718
7 | 21:02.69 | 3:08.18 | 94719 | 108836
8 | 24:11.12 | 2:40.48 | 108837 | 120884
9 | 26:51.60 | 2:59.02 | 120885 | 134311
10 | 29:50.62 | 3:07.16 | 134312 | 148352
11 | 32:58.03 | 2:48.12 | 148353 | 160964
12 | 35:46.15 | 6:04.30 | 160965 | 188294
Track 1
Filename C:\_rips\Gap Mangione - Diana In The Autumn Wind (2003)\Gap Mangione - Diana In The Autumn Wind (2003) [FLAC]\01 - Boy With Toys.wav
Pre-gap length 0:00:02.00
Peak level 88.6 %
Extraction speed 1.4 X
Track quality 100.0 %
Test CRC 0B442AE5
Copy CRC 0B442AE5
Track not present in AccurateRip database
Copy OK
Track 2
Filename C:\_rips\Gap Mangione - Diana In The Autumn Wind (2003)\Gap Mangione - Diana In The Autumn Wind (2003) [FLAC]\02 - Diana In The Autumn Wind.wav
Pre-gap length 0:00:02.00
Peak level 89.0 %
Extraction speed 1.5 X
Track quality 100.0 %
Test CRC 1461962A
Copy CRC 1461962A
Track not present in AccurateRip database
Copy OK
Track 3
Filename C:\_rips\Gap Mangione - Diana In The Autumn Wind (2003)\Gap Mangione - Diana In The Autumn Wind (2003) [FLAC]\03 - Long Hair Soulful.wav
Pre-gap length 0:00:02.00
Peak level 89.1 %
Extraction speed 1.6 X
Track quality 99.9 %
Test CRC ED20AD81
Copy CRC ED20AD81
Track not present in AccurateRip database
Copy OK
Track 4
Filename C:\_rips\Gap Mangione - Diana In The Autumn Wind (2003)\Gap Mangione - Diana In The Autumn Wind (2003) [FLAC]\04 - Yesterday.wav
Pre-gap length 0:00:02.00
Peak level 80.8 %
Extraction speed 1.8 X
Track quality 100.0 %
Test CRC E85E9378
Copy CRC E85E9378
Track not present in AccurateRip database
Copy OK
Track 5
Filename C:\_rips\Gap Mangione - Diana In The Autumn Wind (2003)\Gap Mangione - Diana In The Autumn Wind (2003) [FLAC]\05 - The XIth Commandment.wav
Pre-gap length 0:00:02.00
Peak level 89.1 %
Extraction speed 1.9 X
Track quality 100.0 %
Test CRC EF547B28
Copy CRC EF547B28
Track not present in AccurateRip database
Copy OK
Track 6
Filename C:\_rips\Gap Mangione - Diana In The Autumn Wind (2003)\Gap Mangione - Diana In The Autumn Wind (2003) [FLAC]\06 - St. Thomas.wav
Pre-gap length 0:00:02.00
Peak level 87.2 %
Extraction speed 2.0 X
Track quality 100.0 %
Test CRC 64C266FA
Copy CRC 64C266FA
Track not present in AccurateRip database
Copy OK
Track 7
Filename C:\_rips\Gap Mangione - Diana In The Autumn Wind (2003)\Gap Mangione - Diana In The Autumn Wind (2003) [FLAC]\07 - You're Nobody Till Somebody Loves You.wav
Pre-gap length 0:00:02.00
Peak level 89.1 %
Extraction speed 1.7 X
Track quality 99.9 %
Test CRC C79E93C4
Copy CRC C79E93C4
Track not present in AccurateRip database
Copy OK
Track 8
Filename C:\_rips\Gap Mangione - Diana In The Autumn Wind (2003)\Gap Mangione - Diana In The Autumn Wind (2003) [FLAC]\08 - Pond With Swans.wav
Pre-gap length 0:00:02.00
Peak level 80.7 %
Extraction speed 1.7 X
Track quality 99.9 %
Test CRC ABD8DE79
Copy CRC ABD8DE79
Track not present in AccurateRip database
Copy OK
Track 9
Filename C:\_rips\Gap Mangione - Diana In The Autumn Wind (2003)\Gap Mangione - Diana In The Autumn Wind (2003) [FLAC]\09 - You Are My Sunshine.wav
Pre-gap length 0:00:02.00
Peak level 89.1 %
Extraction speed 2.1 X
Track quality 100.0 %
Test CRC 00E49E24
Copy CRC 00E49E24
Track not present in AccurateRip database
Copy OK
Track 10
Filename C:\_rips\Gap Mangione - Diana In The Autumn Wind (2003)\Gap Mangione - Diana In The Autumn Wind (2003) [FLAC]\10 - Free Again.wav
Pre-gap length 0:00:02.00
Peak level 89.1 %
Extraction speed 1.9 X
Track quality 99.9 %
Test CRC 4F958792
Copy CRC 4F958792
Track not present in AccurateRip database
Copy OK
Track 11
Filename C:\_rips\Gap Mangione - Diana In The Autumn Wind (2003)\Gap Mangione - Diana In The Autumn Wind (2003) [FLAC]\11 - Dream On Little Dreamer.wav
Pre-gap length 0:00:02.00
Peak level 89.2 %
Extraction speed 2.2 X
Track quality 100.0 %
Test CRC 2849059B
Copy CRC 2849059B
Track not present in AccurateRip database
Copy OK
Track 12
Filename C:\_rips\Gap Mangione - Diana In The Autumn Wind (2003)\Gap Mangione - Diana In The Autumn Wind (2003) [FLAC]\12 - Graduate Medley.wav
Pre-gap length 0:00:02.00
Peak level 82.4 %
Extraction speed 2.6 X
Track quality 100.0 %
Test CRC 39B3ABF3
Copy CRC 39B3ABF3
Track not present in AccurateRip database
Copy OK
None of the tracks are present in the AccurateRip database
No errors occurred
End of status report
---- CUETools DB Plugin V2.1.6
[CTDB TOCID: _G8ZhLUVFOGY_TZoLH2n39AZn0s-] found
Submit result: _G8ZhLUVFOGY_TZoLH2n39AZn0s- has been confirmed
Track | CTDB Status
1 | (2/2) Accurately ripped
2 | (2/2) Accurately ripped
3 | (2/2) Accurately ripped
4 | (2/2) Accurately ripped
5 | (2/2) Accurately ripped
6 | (2/2) Accurately ripped
7 | (2/2) Accurately ripped
8 | (2/2) Accurately ripped
9 | (2/2) Accurately ripped
10 | (2/2) Accurately ripped
11 | (2/2) Accurately ripped
12 | (2/2) Accurately ripped
==== Log checksum 8BB7691B3E4D670D56F7E627AF3FE0030BAAFE77511EA1A94AB4B3E2C6FD08D7 ====
 
Содержание индексной карты (.CUE)
REM GENRE Jazz
REM DATE 1968
REM DISCID AA09CE0C
REM COMMENT "ExactAudioCopy v1.1"
PERFORMER "Gap Mangione"
TITLE "Diana in the Autumn Wind"
FILE "01 - Boy with Toys.wav" WAVE
TRACK 01 AUDIO
TITLE "Boy with Toys"
PERFORMER "Gap Mangione"
INDEX 01 00:00:00
TRACK 02 AUDIO
TITLE "Diana in the Autumn Wind"
PERFORMER "Gap Mangione"
INDEX 00 02:43:54
FILE "02 - Diana in the Autumn Wind.wav" WAVE
INDEX 01 00:00:00
TRACK 03 AUDIO
TITLE "Long Hair Soulful"
PERFORMER "Gap Mangione"
INDEX 00 02:58:63
FILE "03 - Long Hair Soulful.wav" WAVE
INDEX 01 00:00:00
TRACK 04 AUDIO
TITLE "Yesterday"
PERFORMER "Gap Mangione"
INDEX 00 04:37:14
FILE "04 - Yesterday.wav" WAVE
INDEX 01 00:00:00
TRACK 05 AUDIO
TITLE "The XIth Commandment"
PERFORMER "Gap Mangione"
INDEX 00 03:58:22
FILE "05 - The XIth Commandment.wav" WAVE
INDEX 01 00:00:00
TRACK 06 AUDIO
TITLE "St. Thomas"
PERFORMER "Gap Mangione"
INDEX 00 03:25:16
FILE "06 - St. Thomas.wav" WAVE
INDEX 01 00:00:00
TRACK 07 AUDIO
TITLE "You're Nobody Till Somebody Loves You"
PERFORMER "Gap Mangione"
INDEX 00 03:07:50
FILE "07 - You're Nobody Till Somebody Loves You.wav" WAVE
INDEX 01 00:00:00
TRACK 08 AUDIO
TITLE "Pond with Swans"
PERFORMER "Gap Mangione"
INDEX 00 03:06:18
FILE "08 - Pond with Swans.wav" WAVE
INDEX 01 00:00:00
TRACK 09 AUDIO
TITLE "You Are My Sunshine"
PERFORMER "Gap Mangione"
INDEX 00 02:38:48
FILE "09 - You Are My Sunshine.wav" WAVE
INDEX 01 00:00:00
TRACK 10 AUDIO
TITLE "Free Again"
PERFORMER "Gap Mangione"
INDEX 00 02:57:02
FILE "10 - Free Again.wav" WAVE
INDEX 01 00:00:00
TRACK 11 AUDIO
TITLE "Dream On Little Dreamer"
PERFORMER "Gap Mangione"
INDEX 00 03:05:16
FILE "11 - Dream On Little Dreamer.wav" WAVE
INDEX 01 00:00:00
TRACK 12 AUDIO
TITLE "Graduate Medley"
PERFORMER "Gap Mangione"
INDEX 00 02:46:12
FILE "12 - Graduate Medley.wav" WAVE
INDEX 01 00:00:00
 
Отчет CUETools
[CUETools log; Date: 10.01.2016 16:19:41; Version: 2.1.5]
[CTDB TOCID: _G8ZhLUVFOGY_TZoLH2n39AZn0s-] found.
Track | CTDB Status
1 | (3/3) Accurately ripped
2 | (3/3) Accurately ripped
3 | (3/3) Accurately ripped
4 | (3/3) Accurately ripped
5 | (3/3) Accurately ripped
6 | (3/3) Accurately ripped
7 | (3/3) Accurately ripped
8 | (3/3) Accurately ripped
9 | (3/3) Accurately ripped
10 | (3/3) Accurately ripped
11 | (3/3) Accurately ripped
12 | (3/3) Accurately ripped
[AccurateRip ID: 00121d5d-00a8fb60-aa09ce0c] disk not present in database.
Track Peak [ CRC32 ] [W/O NULL] [ LOG ]
-- 89,2 [4E6607B4] [4EAC1E76]
01 88,6 [0B442AE5] [AC637297] CRC32
02 89,0 [1461962A] [BD6B5056] CRC32
03 89,1 [ED20AD81] [5F65511F] CRC32
04 80,8 [E85E9378] [3FCD9133] CRC32
05 89,1 [EF547B28] [78C98A04] CRC32
06 87,2 [64C266FA] [8E6886BD] CRC32
07 89,1 [C79E93C4] [3B3E5C1C] CRC32
08 80,7 [ABD8DE79] [FCD551BC] CRC32
09 89,1 [00E49E24] [EAFF8D01] CRC32
10 89,1 [4F958792] [DD10058D] CRC32
11 89,2 [2849059B] [00E34E54] CRC32
12 82,4 [39B3ABF3] [03399C61] CRC32
 
Review by Jack Bowers
Gap and Chuck Mangione roared out of Rochester, NY in 1960 with their exciting Riverside Records debut, The Jazz Brothers, and returned to the studio eight years later to produce Diana in the Autumn Wind under pianist Gap’s name, showcasing his trio on four tracks and a big band conducted by younger brother Chuck on the other eight.
The idea, Gap writes in his updated liner notes, was “to create an album of the music we were playing five nights a week at The Other Side of the Tracks, a supper club in Rochester, and to present some new compositions by my brother . . .” Chuck, of course, went on to write the music for a number of best-selling albums, starting with Friends & Love in 1970 and including Land of Make Believe, Chase the Clouds Away and Feels So Good. His compositions here (five including “The XIth Commandment,” co-written with Gap) provide an indication of the path he was to follow, transposing handsome melodic ideas into what some observers labeled “smooth” or at least “chamber” jazz. Whatever one called it, there was no doubting its wide popularity.
One clear advantage Chuck had on his own albums was far better sound quality; Diana suffers greatly from a cramped and boggy ambiance that makes it seem even older than its thirty-five years. It could be stereo but definitely sounds monaural. The trio selections, while marginally better, are dated in their own way by Gap’s choice of electric piano, except on Sonny Rollins’ spirited “St. Thomas” (not to mention the choice of material, which includes the Beatles’ “Yesterday” and a medley from Dustin Hoffman’s breakthrough ’60s film, The Graduate ).
The sidemen are first-class, and it’s too bad there aren’t any solos from the likes of Marvin Stamm, Wayne Andre, Joe Farrell, Frank Wess or Mike Manieri. Jerome Richardson is heard only briefly, on “Diana,” as is trumpeter Clark Terry on “Long Hair Soulful.” Gap takes the other solos, but hey, it’s his album, and the roughly forty-two minute playing time doesn’t leave much space for other voices, several of whom (Farrell, Richardson, Dhui Mandingo, Jimmy Buffington, Sam Brown) are no longer with us. Mention should be made of the splendid rhythm section, adroitly anchored by two up-and-coming young players, bassist Tony Levin and drummer Steve Gadd.
While Diana has her moments, the passage of time has left its indelible mark, effacing much of the charm and beauty of her long-ago youth. She remains an amiable companion, but not a temptress who’s likely to quicken one’s pulse.
 
Состав
Gap Mangione - piano, electric piano, organ
Tony Levin - bass, electric bass
Steve Gadd, Joe LaBarbera (#6) - drums
Dhui Mandingo - conga drums (#6)
#1-3,5,7,8,10,11 add the following:
Chuck Mangione - conductor
Snooky Young, Marv Stamm, Clark Terry - trumpet, flugelhorn
Wayne Andre, Tony Studd - trombone
Paul Faulise - bass trombone
James Buffington, Earl Chapin - French horn
Jerome Richardson - soprano saxophone, alto saxophone, baritone saxophone, flute
Joe Farrell, Frank Wess - tenor saxophone, flute
Ned Corman - baritone saxophone, flute, bass clarinet
Ray Beckenstein - flute, piccolo
Sam Brown - guitar
Mike Manieri - vibraphone
Приватный:
Нет (DHT включён)
Размер:
227.58 Мб (238,635,928 байт) » файлов: 20
Участники:
0 раздают, 0 качают (0 участников всего)
Внешние участники:
5 раздают, 1 качают (6 участников всего) [ Обновить ]
Есть вопросы - пишите личное сообщение пользователю M0p94ok.
09:26
62
Нет комментариев. Ваш будет первым!