Поиск

(Funk, Soul) [CD] Mandrill - Solid (1975) - 2014, FLAC (tracks+.cue), lossless

(Funk, Soul) [CD] Mandrill - Solid (1975) - 2014, FLAC (tracks+.cue), lossless
Треклист:
Mandrill - Solid (1975) Жанр: Funk, Soul
Носитель: CD
Год издания: 2014
Издатель (лейбл): Tone Arm
Номер по каталогу: TA 0025
Аудиокодек: FLAC (*.flac)
Тип рипа: tracks+.cue
Битрейт аудио: lossless
Продолжительность: 36:21
Rip by JET 1
Наличие сканов в содержимом раздачи: да
Треклист:
01. Yucca Jump (3:33)
02. Peck Your Neck (3:43)
03. Wind On Horseback (6:18)
04. Tee Vee (4:58)
05. Solid (7:50)
06. Stop & Go (3:26)
07. Silk (6:33)
 
 
Лог создания рипа
Exact Audio Copy V1.0 beta 3 from 29. August 2011
EAC extraction logfile from 4. November 2015, 14:51
Mandrill / Solid
Used drive : GENERIC CDRCB05 Adapter: 4 ID: 0
Read mode : Secure
Utilize accurate stream : Yes
Defeat audio cache : Yes
Make use of C2 pointers : No
Read offset correction : 102
Overread into Lead-In and Lead-Out : No
Fill up missing offset samples with silence : Yes
Delete leading and trailing silent blocks : No
Null samples used in CRC calculations : Yes
Used interface : Native Win32 interface for Win NT & 2000
Gap handling : Appended to previous track
Used output format : User Defined Encoder
Selected bitrate : 1024 kBit/s
Quality : High
Add ID3 tag : No
Command line compressor : C:\Program Files\FLAC\flac.exe
Additional command line options : -8 -V -T "ARTIST=%artist%" -T "TITLE=%title%" -T "ALBUM=%albumtitle%" -T "DATE=%year%" -T "TRACKNUMBER=%tracknr%" -T "GENRE=%genre%" -T "PERFORMER=%albuminterpret%" -T "COMPOSER=%composer%" %haslyrics%--tag-from-file=LYRICS="%lyricsfile%"%haslyrics% -T "ALBUMARTIST=%albumartist%" -T "DISCNUMBER=%cdnumber%" -T "TOTALDISCS=%totalcds%" -T "TOTALTRACKS=%numtracks%" -T "COMMENT=%comment%" %source% -o %dest%
TOC of the extracted CD
Track | Start | Length | Start sector | End sector
---------------------------------------------------------
1 | 0:00.00 | 3:33.18 | 0 | 15992
2 | 3:33.18 | 3:42.43 | 15993 | 32685
3 | 7:15.61 | 6:17.53 | 32686 | 61013
4 | 13:33.39 | 4:57.74 | 61014 | 83362
5 | 18:31.38 | 7:49.67 | 83363 | 118604
6 | 26:21.30 | 3:26.19 | 118605 | 134073
7 | 29:47.49 | 6:33.07 | 134074 | 163555
Track 1
Filename G:\POSTS\Mandrill - Solid (1975) {2014 Tone Arm}\01 - Yucca Jump.wav
Pre-gap length 0:00:02.00
Peak level 96.6 %
Extraction speed 1.4 X
Track quality 100.0 %
Test CRC 7727BE3D
Copy CRC 7727BE3D
Track not present in AccurateRip database
Copy OK
Track 2
Filename G:\POSTS\Mandrill - Solid (1975) {2014 Tone Arm}\02 - Peck Your Neck.wav
Pre-gap length 0:00:03.00
Peak level 96.6 %
Extraction speed 1.5 X
Track quality 100.0 %
Test CRC 070C042E
Copy CRC 070C042E
Track not present in AccurateRip database
Copy OK
Track 3
Filename G:\POSTS\Mandrill - Solid (1975) {2014 Tone Arm}\03 - Wind On Horseback.wav
Pre-gap length 0:00:03.00
Peak level 96.6 %
Extraction speed 1.8 X
Track quality 100.0 %
Test CRC 13D0E22B
Copy CRC 13D0E22B
Track not present in AccurateRip database
Copy OK
Track 4
Filename G:\POSTS\Mandrill - Solid (1975) {2014 Tone Arm}\04 - Tee Vee.wav
Pre-gap length 0:00:03.00
Peak level 96.6 %
Extraction speed 1.9 X
Track quality 100.0 %
Test CRC F15FC0BD
Copy CRC F15FC0BD
Track not present in AccurateRip database
Copy OK
Track 5
Filename G:\POSTS\Mandrill - Solid (1975) {2014 Tone Arm}\05 - Solid.wav
Pre-gap length 0:00:03.01
Peak level 96.6 %
Extraction speed 2.2 X
Track quality 100.0 %
Test CRC 3015074A
Copy CRC 3015074A
Track not present in AccurateRip database
Copy OK
Track 6
Filename G:\POSTS\Mandrill - Solid (1975) {2014 Tone Arm}\06 - Stop & Go.wav
Pre-gap length 0:00:03.00
Peak level 96.6 %
Extraction speed 2.1 X
Track quality 100.0 %
Test CRC DF4C33F5
Copy CRC DF4C33F5
Track not present in AccurateRip database
Copy OK
Track 7
Filename G:\POSTS\Mandrill - Solid (1975) {2014 Tone Arm}\07 - Silk.wav
Pre-gap length 0:00:03.00
Peak level 96.6 %
Extraction speed 2.2 X
Track quality 99.9 %
Test CRC 43AA025B
Copy CRC 43AA025B
Track not present in AccurateRip database
Copy OK
None of the tracks are present in the AccurateRip database
No errors occurred
End of status report
==== Log checksum 4F19CEC682262FF226E42E33BCC0BA12BACA45BC4D704A9B9FC9CB724F5A6DA4 ====
 
Содержание индексной карты (.CUE)
REM GENRE Funk
REM DATE 1975
REM DISCID 56088407
REM COMMENT "ExactAudioCopy v1.0b3"
PERFORMER "Mandrill"
TITLE "Solid"
FILE "01 - Yucca Jump.wav" WAVE
TRACK 01 AUDIO
TITLE "Yucca Jump"
PERFORMER "Mandrill"
INDEX 01 00:00:00
TRACK 02 AUDIO
TITLE "Peck Your Neck"
PERFORMER "Mandrill"
INDEX 00 03:30:18
FILE "02 - Peck Your Neck.wav" WAVE
INDEX 01 00:00:00
TRACK 03 AUDIO
TITLE "Wind On Horseback"
PERFORMER "Mandrill"
INDEX 00 03:39:43
FILE "03 - Wind On Horseback.wav" WAVE
INDEX 01 00:00:00
TRACK 04 AUDIO
TITLE "Tee Vee"
PERFORMER "Mandrill"
INDEX 00 06:14:53
FILE "04 - Tee Vee.wav" WAVE
INDEX 01 00:00:00
TRACK 05 AUDIO
TITLE "Solid"
PERFORMER "Mandrill"
INDEX 00 04:54:73
FILE "05 - Solid.wav" WAVE
INDEX 01 00:00:00
TRACK 06 AUDIO
TITLE "Stop & Go"
PERFORMER "Mandrill"
INDEX 00 07:46:67
FILE "06 - Stop & Go.wav" WAVE
INDEX 01 00:00:00
TRACK 07 AUDIO
TITLE "Silk"
PERFORMER "Mandrill"
INDEX 00 03:23:19
FILE "07 - Silk.wav" WAVE
INDEX 01 00:00:00
Приватный:
Нет (DHT включён)
Размер:
295.52 Мб (309,872,407 байт) » файлов: 18
Участники:
0 раздают, 0 качают (0 участников всего)
Внешние участники:
5 раздают, 1 качают (6 участников всего) [ Обновить ]
Есть вопросы - пишите личное сообщение пользователю M0p94ok.
08:56
111
Нет комментариев. Ваш будет первым!