Поиск

(Soul) [CD] Ronnie Dyson - Phase 2 / Brand New Day - 2014, FLAC (tracks+.cue), lossless

(Soul) [CD] Ronnie Dyson - Phase 2 / Brand New Day - 2014, FLAC (tracks+.cue), lossless
Треклист:
xRonnie Dyson - Phase 2 / Brand New Day Жанр: Soul
Носитель: CD
Год издания: 2014
Издатель (лейбл): Real Gone Music
Номер по каталогу: RGM-0294
Аудиокодек: FLAC (*.flac)
Тип рипа: tracks+.cue
Битрейт аудио: lossless
Продолжительность: 76:17
Rip by JET 1
Наличие сканов в содержимом раздачи: да
Треклист:
01. Bring It On Home (4:11)
02. Heart To Heart (4:14)
03. One More Chance For The Fool (4:14)
04. Say You Will (5:06)
05. Expressway To Your Heart (4:23)
06. Now (3:38)
07. Even In The Darkest Night (4:07)
08. Foreplay (5:02)
09. I Found Someone (3:46)
10. All Over Your Face (6:12)
11. Let The Love Begin (3:55)
12. Don't Need You Now (5:09)
13. Waiting For You (4:29)
14. Tender Lovin' Care (3:45)
15. I Need Just A Little More Lovin' (4:24)
16. I Gave You All Of Me (2:56)
17. You Better Be Fierce (6:48)
 
 
Лог создания рипа
Exact Audio Copy V1.0 beta 3 from 29. August 2011
EAC extraction logfile from 4. November 2015, 12:26
Ronnie Dyson / Phase 2 / Brand New Day
Used drive : GENERIC CDRCB05 Adapter: 4 ID: 0
Read mode : Secure
Utilize accurate stream : Yes
Defeat audio cache : Yes
Make use of C2 pointers : No
Read offset correction : 102
Overread into Lead-In and Lead-Out : No
Fill up missing offset samples with silence : Yes
Delete leading and trailing silent blocks : No
Null samples used in CRC calculations : Yes
Used interface : Native Win32 interface for Win NT & 2000
Gap handling : Appended to previous track
Used output format : User Defined Encoder
Selected bitrate : 1024 kBit/s
Quality : High
Add ID3 tag : No
Command line compressor : C:\Program Files\FLAC\flac.exe
Additional command line options : -8 -V -T "ARTIST=%artist%" -T "TITLE=%title%" -T "ALBUM=%albumtitle%" -T "DATE=%year%" -T "TRACKNUMBER=%tracknr%" -T "GENRE=%genre%" -T "PERFORMER=%albuminterpret%" -T "COMPOSER=%composer%" %haslyrics%--tag-from-file=LYRICS="%lyricsfile%"%haslyrics% -T "ALBUMARTIST=%albumartist%" -T "DISCNUMBER=%cdnumber%" -T "TOTALDISCS=%totalcds%" -T "TOTALTRACKS=%numtracks%" -T "COMMENT=%comment%" %source% -o %dest%
TOC of the extracted CD
Track | Start | Length | Start sector | End sector
---------------------------------------------------------
1 | 0:00.00 | 4:10.44 | 0 | 18793
2 | 4:10.44 | 4:13.52 | 18794 | 37820
3 | 8:24.21 | 4:14.32 | 37821 | 56902
4 | 12:38.53 | 5:06.05 | 56903 | 79857
5 | 17:44.58 | 4:22.62 | 79858 | 99569
6 | 22:07.45 | 3:37.47 | 99570 | 115891
7 | 25:45.17 | 4:06.54 | 115892 | 134395
8 | 29:51.71 | 5:02.30 | 134396 | 157075
9 | 34:54.26 | 3:45.58 | 157076 | 174008
10 | 38:40.09 | 6:11.41 | 174009 | 201874
11 | 44:51.50 | 3:55.10 | 201875 | 219509
12 | 48:46.60 | 5:08.44 | 219510 | 242653
13 | 53:55.29 | 4:28.43 | 242654 | 262796
14 | 58:23.72 | 3:45.16 | 262797 | 279687
15 | 62:09.13 | 4:23.44 | 279688 | 299456
16 | 66:32.57 | 2:55.60 | 299457 | 312641
17 | 69:28.42 | 6:48.01 | 312642 | 343242
Track 1
Filename G:\POSTS\Ronnie Dyson - Phase 2 '82 Brand New Day '83 [2014 SoulMusic.com]\01 - Bring It On Home.wav
Pre-gap length 0:00:02.00
Peak level 98.1 %
Extraction speed 1.4 X
Track quality 100.0 %
Test CRC A3C44594
Copy CRC A3C44594
Accurately ripped (confidence 1) [A7B0BBBE] (AR v2)
Copy OK
Track 2
Filename G:\POSTS\Ronnie Dyson - Phase 2 '82 Brand New Day '83 [2014 SoulMusic.com]\02 - Heart To Heart.wav
Pre-gap length 0:00:02.00
Peak level 97.7 %
Extraction speed 1.5 X
Track quality 100.0 %
Test CRC 4E8EB45C
Copy CRC 4E8EB45C
Accurately ripped (confidence 1) [3E009366] (AR v2)
Copy OK
Track 3
Filename G:\POSTS\Ronnie Dyson - Phase 2 '82 Brand New Day '83 [2014 SoulMusic.com]\03 - One More Chance For The Fool.wav
Pre-gap length 0:00:02.00
Peak level 97.7 %
Extraction speed 1.7 X
Track quality 100.0 %
Test CRC A9006A39
Copy CRC A9006A39
Accurately ripped (confidence 1) [64BF4002] (AR v2)
Copy OK
Track 4
Filename G:\POSTS\Ronnie Dyson - Phase 2 '82 Brand New Day '83 [2014 SoulMusic.com]\04 - Say You Will.wav
Pre-gap length 0:00:02.00
Peak level 97.6 %
Extraction speed 1.7 X
Track quality 99.9 %
Test CRC 2593BED3
Copy CRC 2593BED3
Accurately ripped (confidence 1) [38D7A1EA] (AR v2)
Copy OK
Track 5
Filename G:\POSTS\Ronnie Dyson - Phase 2 '82 Brand New Day '83 [2014 SoulMusic.com]\05 - Expressway To Your Heart.wav
Pre-gap length 0:00:02.00
Peak level 99.0 %
Extraction speed 2.0 X
Track quality 100.0 %
Test CRC FAA65611
Copy CRC FAA65611
Accurately ripped (confidence 1) [CD7BE5C4] (AR v2)
Copy OK
Track 6
Filename G:\POSTS\Ronnie Dyson - Phase 2 '82 Brand New Day '83 [2014 SoulMusic.com]\06 - Now.wav
Pre-gap length 0:00:02.00
Peak level 98.0 %
Extraction speed 2.0 X
Track quality 100.0 %
Test CRC 7BBF86DD
Copy CRC 7BBF86DD
Accurately ripped (confidence 1) [F6016FCE] (AR v2)
Copy OK
Track 7
Filename G:\POSTS\Ronnie Dyson - Phase 2 '82 Brand New Day '83 [2014 SoulMusic.com]\07 - Even In The Darkest Night.wav
Pre-gap length 0:00:02.00
Peak level 98.1 %
Extraction speed 2.1 X
Track quality 100.0 %
Test CRC 9289B328
Copy CRC 9289B328
Accurately ripped (confidence 1) [8387AEE2] (AR v2)
Copy OK
Track 8
Filename G:\POSTS\Ronnie Dyson - Phase 2 '82 Brand New Day '83 [2014 SoulMusic.com]\08 - Foreplay.wav
Pre-gap length 0:00:02.00
Peak level 97.9 %
Extraction speed 2.4 X
Track quality 100.0 %
Test CRC 0260CD61
Copy CRC 0260CD61
Accurately ripped (confidence 1) [266696B2] (AR v2)
Copy OK
Track 9
Filename G:\POSTS\Ronnie Dyson - Phase 2 '82 Brand New Day '83 [2014 SoulMusic.com]\09 - I Found Someone.wav
Pre-gap length 0:00:02.00
Peak level 97.7 %
Extraction speed 2.1 X
Track quality 99.9 %
Test CRC A79836E8
Copy CRC A79836E8
Accurately ripped (confidence 1) [D772FED9] (AR v2)
Copy OK
Track 10
Filename G:\POSTS\Ronnie Dyson - Phase 2 '82 Brand New Day '83 [2014 SoulMusic.com]\10 - All Over Your Face.wav
Pre-gap length 0:00:02.00
Peak level 98.8 %
Extraction speed 2.6 X
Track quality 100.0 %
Test CRC BDD89BD9
Copy CRC BDD89BD9
Accurately ripped (confidence 1) [78CD0FA1] (AR v2)
Copy OK
Track 11
Filename G:\POSTS\Ronnie Dyson - Phase 2 '82 Brand New Day '83 [2014 SoulMusic.com]\11 - Let The Love Begin.wav
Pre-gap length 0:00:02.00
Peak level 98.8 %
Extraction speed 2.5 X
Track quality 100.0 %
Test CRC 576D1076
Copy CRC 576D1076
Accurately ripped (confidence 1) [E71A31A8] (AR v2)
Copy OK
Track 12
Filename G:\POSTS\Ronnie Dyson - Phase 2 '82 Brand New Day '83 [2014 SoulMusic.com]\12 - Don't Need You Now.wav
Pre-gap length 0:00:02.00
Peak level 99.5 %
Extraction speed 2.7 X
Track quality 100.0 %
Test CRC 77D8C586
Copy CRC 77D8C586
Accurately ripped (confidence 1) [5FEE5BDE] (AR v2)
Copy OK
Track 13
Filename G:\POSTS\Ronnie Dyson - Phase 2 '82 Brand New Day '83 [2014 SoulMusic.com]\13 - Waiting For You.wav
Pre-gap length 0:00:02.00
Peak level 98.8 %
Extraction speed 2.4 X
Track quality 99.9 %
Test CRC EBD5ECE2
Copy CRC EBD5ECE2
Accurately ripped (confidence 1) [4CBAD700] (AR v2)
Copy OK
Track 14
Filename G:\POSTS\Ronnie Dyson - Phase 2 '82 Brand New Day '83 [2014 SoulMusic.com]\14 - Tender Lovin' Care.wav
Pre-gap length 0:00:02.00
Peak level 98.8 %
Extraction speed 2.8 X
Track quality 100.0 %
Test CRC 0DDA4405
Copy CRC 0DDA4405
Accurately ripped (confidence 1) [BF89F225] (AR v2)
Copy OK
Track 15
Filename G:\POSTS\Ronnie Dyson - Phase 2 '82 Brand New Day '83 [2014 SoulMusic.com]\15 - I Need Just A Little More Lovin'.wav
Pre-gap length 0:00:02.00
Peak level 98.8 %
Extraction speed 2.6 X
Track quality 99.9 %
Test CRC 5911566A
Copy CRC 5911566A
Accurately ripped (confidence 1) [290D6477] (AR v2)
Copy OK
Track 16
Filename G:\POSTS\Ronnie Dyson - Phase 2 '82 Brand New Day '83 [2014 SoulMusic.com]\16 - I Gave You All Of Me.wav
Pre-gap length 0:00:02.00
Peak level 98.8 %
Extraction speed 2.7 X
Track quality 100.0 %
Test CRC 4A0EEA84
Copy CRC 4A0EEA84
Accurately ripped (confidence 1) [F1688E32] (AR v2)
Copy OK
Track 17
Filename G:\POSTS\Ronnie Dyson - Phase 2 '82 Brand New Day '83 [2014 SoulMusic.com]\17 - You Better Be Fierce.wav
Pre-gap length 0:00:02.00
Peak level 98.8 %
Extraction speed 2.9 X
Track quality 99.9 %
Test CRC 52EBCC84
Copy CRC 52EBCC84
Accurately ripped (confidence 1) [FA0AD316] (AR v2)
Copy OK
All tracks accurately ripped
No errors occurred
End of status report
==== Log checksum 63319158DFCBD4271ACD41FCE0773C100B5BD4AA4703C389DDDC3B51C9034D5D ====
 
Содержание индексной карты (.CUE)
REM GENRE Soul
REM DATE 2014
REM DISCID F611E011
REM COMMENT "ExactAudioCopy v1.0b3"
PERFORMER "Ronnie Dyson"
TITLE "Phase 2 + Brand New Day "
FILE "01 - Bring It On Home.wav" WAVE
TRACK 01 AUDIO
TITLE "Bring It On Home"
PERFORMER "Ronnie Dyson"
FLAGS DCP
INDEX 01 00:00:00
TRACK 02 AUDIO
TITLE "Heart To Heart"
PERFORMER "Ronnie Dyson"
FLAGS DCP
INDEX 00 04:08:44
FILE "02 - Heart To Heart.wav" WAVE
INDEX 01 00:00:00
TRACK 03 AUDIO
TITLE "One More Chance For The Fool"
PERFORMER "Ronnie Dyson"
FLAGS DCP
INDEX 00 04:11:52
FILE "03 - One More Chance For The Fool.wav" WAVE
INDEX 01 00:00:00
TRACK 04 AUDIO
TITLE "Say You Will"
PERFORMER "Ronnie Dyson"
FLAGS DCP
INDEX 00 04:12:32
FILE "04 - Say You Will.wav" WAVE
INDEX 01 00:00:00
TRACK 05 AUDIO
TITLE "Expressway To Your Heart"
PERFORMER "Ronnie Dyson"
FLAGS DCP
INDEX 00 05:04:05
FILE "05 - Expressway To Your Heart.wav" WAVE
INDEX 01 00:00:00
TRACK 06 AUDIO
TITLE "Now"
PERFORMER "Ronnie Dyson"
FLAGS DCP
INDEX 00 04:20:62
FILE "06 - Now.wav" WAVE
INDEX 01 00:00:00
TRACK 07 AUDIO
TITLE "Even In The Darkest Night"
PERFORMER "Ronnie Dyson"
FLAGS DCP
INDEX 00 03:35:47
FILE "07 - Even In The Darkest Night.wav" WAVE
INDEX 01 00:00:00
TRACK 08 AUDIO
TITLE "Foreplay"
PERFORMER "Ronnie Dyson"
FLAGS DCP
INDEX 00 04:04:54
FILE "08 - Foreplay.wav" WAVE
INDEX 01 00:00:00
TRACK 09 AUDIO
TITLE "I Found Someone"
PERFORMER "Ronnie Dyson"
FLAGS DCP
INDEX 00 05:00:30
FILE "09 - I Found Someone.wav" WAVE
INDEX 01 00:00:00
TRACK 10 AUDIO
TITLE "All Over Your Face"
PERFORMER "Ronnie Dyson"
FLAGS DCP
INDEX 00 03:43:58
FILE "10 - All Over Your Face.wav" WAVE
INDEX 01 00:00:00
TRACK 11 AUDIO
TITLE "Let The Love Begin"
PERFORMER "Ronnie Dyson"
FLAGS DCP
INDEX 00 06:09:41
FILE "11 - Let The Love Begin.wav" WAVE
INDEX 01 00:00:00
TRACK 12 AUDIO
TITLE "Don't Need You Now"
PERFORMER "Ronnie Dyson"
FLAGS DCP
INDEX 00 03:53:10
FILE "12 - Don't Need You Now.wav" WAVE
INDEX 01 00:00:00
TRACK 13 AUDIO
TITLE "Waiting For You"
PERFORMER "Ronnie Dyson"
FLAGS DCP
INDEX 00 05:06:44
FILE "13 - Waiting For You.wav" WAVE
INDEX 01 00:00:00
TRACK 14 AUDIO
TITLE "Tender Lovin' Care"
PERFORMER "Ronnie Dyson"
FLAGS DCP
INDEX 00 04:26:43
FILE "14 - Tender Lovin' Care.wav" WAVE
INDEX 01 00:00:00
TRACK 15 AUDIO
TITLE "I Need Just A Little More Lovin'"
PERFORMER "Ronnie Dyson"
FLAGS DCP
INDEX 00 03:43:16
FILE "15 - I Need Just A Little More Lovin'.wav" WAVE
INDEX 01 00:00:00
TRACK 16 AUDIO
TITLE "I Gave You All Of Me"
PERFORMER "Ronnie Dyson"
FLAGS DCP
INDEX 00 04:21:44
FILE "16 - I Gave You All Of Me.wav" WAVE
INDEX 01 00:00:00
TRACK 17 AUDIO
TITLE "You Better Be Fierce"
PERFORMER "Ronnie Dyson"
FLAGS DCP
INDEX 00 02:53:60
FILE "17 - You Better Be Fierce.wav" WAVE
INDEX 01 00:00:00
Приватный:
Нет (DHT включён)
Размер:
611.25 Мб (640,945,078 байт) » файлов: 29
Участники:
0 раздают, 0 качают (0 участников всего)
Внешние участники:
5 раздают, 1 качают (6 участников всего) [ Обновить ]
Есть вопросы - пишите личное сообщение пользователю M0p94ok.
08:55
65
Нет комментариев. Ваш будет первым!