Поиск

(Soul) [CD] Kloud 9 - Enjoy The Ride - 2008, FLAC (tracks+.cue), lossless

(Soul) [CD] Kloud 9 - Enjoy The Ride - 2008, FLAC (tracks+.cue), lossless
Треклист:
Kloud 9 - Enjoy The Ride Жанр: Soul
Носитель: CD
Год издания: 2008
Издатель (лейбл): Expansion Records
Номер по каталогу: XECD-54
Аудиокодек: FLAC (*.flac)
Тип рипа: tracks+.cue
Битрейт аудио: lossless
Продолжительность: 63:00
Rip by JET 1
Наличие сканов в содержимом раздачи: да
Треклист:
01. Everything That I Need (4:56)
02. Appreciation (4:22)
03. Never Give It Up (5:47)
04. All That Matters (4:42)
05. Grateful (4:02)
06. Step (4:18)
07. Love's Just Better With You (3:59)
08. Can't Hold This Love (4:28)
09. I'm Calling You (4:59)
10. To Have Your Love (4:45)
11. Enjoy The Ride (5:07)
12. Duffie's Theme (4:34)
13. Love's Just Better With You (The Realm Vocal Remix) (7:01)
 
 
Лог создания рипа
Exact Audio Copy V1.0 beta 3 from 29. August 2011
EAC extraction logfile from 4. November 2015, 16:18
Kloud 9 / Enjoy The Ride
Used drive : GENERIC CDRCB05 Adapter: 4 ID: 0
Read mode : Secure
Utilize accurate stream : Yes
Defeat audio cache : Yes
Make use of C2 pointers : No
Read offset correction : 102
Overread into Lead-In and Lead-Out : No
Fill up missing offset samples with silence : Yes
Delete leading and trailing silent blocks : No
Null samples used in CRC calculations : Yes
Used interface : Native Win32 interface for Win NT & 2000
Gap handling : Appended to previous track
Used output format : User Defined Encoder
Selected bitrate : 1024 kBit/s
Quality : High
Add ID3 tag : No
Command line compressor : C:\Program Files\FLAC\flac.exe
Additional command line options : -8 -V -T "ARTIST=%artist%" -T "TITLE=%title%" -T "ALBUM=%albumtitle%" -T "DATE=%year%" -T "TRACKNUMBER=%tracknr%" -T "GENRE=%genre%" -T "PERFORMER=%albuminterpret%" -T "COMPOSER=%composer%" %haslyrics%--tag-from-file=LYRICS="%lyricsfile%"%haslyrics% -T "ALBUMARTIST=%albumartist%" -T "DISCNUMBER=%cdnumber%" -T "TOTALDISCS=%totalcds%" -T "TOTALTRACKS=%numtracks%" -T "COMMENT=%comment%" %source% -o %dest%
TOC of the extracted CD
Track | Start | Length | Start sector | End sector
---------------------------------------------------------
1 | 0:00.00 | 4:55.59 | 0 | 22183
2 | 4:55.59 | 4:22.06 | 22184 | 41839
3 | 9:17.65 | 5:47.31 | 41840 | 67895
4 | 15:05.21 | 4:42.06 | 67896 | 89051
5 | 19:47.27 | 4:02.03 | 89052 | 107204
6 | 23:49.30 | 4:17.56 | 107205 | 126535
7 | 28:07.11 | 3:59.20 | 126536 | 144480
8 | 32:06.31 | 4:27.56 | 144481 | 164561
9 | 36:34.12 | 4:59.07 | 164562 | 186993
10 | 41:33.19 | 4:45.00 | 186994 | 208368
11 | 46:18.19 | 5:07.04 | 208369 | 231397
12 | 51:25.23 | 4:34.01 | 231398 | 251948
13 | 55:59.24 | 7:00.55 | 251949 | 283503
Track 1
Filename G:\POSTS\Kloud 9 - Enjoy The Ride (2008)\01 - Everything That I Need.wav
Pre-gap length 0:00:02.00
Peak level 100.0 %
Extraction speed 2.2 X
Track quality 99.9 %
Test CRC 509061E7
Copy CRC 509061E7
Track not present in AccurateRip database
Copy OK
Track 2
Filename G:\POSTS\Kloud 9 - Enjoy The Ride (2008)\02 - Appreciation.wav
Pre-gap length 0:00:00.61
Peak level 100.0 %
Extraction speed 2.7 X
Track quality 100.0 %
Test CRC CC29DAA5
Copy CRC CC29DAA5
Track not present in AccurateRip database
Copy OK
Track 3
Filename G:\POSTS\Kloud 9 - Enjoy The Ride (2008)\03 - Never Give It Up.wav
Pre-gap length 0:00:00.26
Peak level 100.0 %
Extraction speed 3.0 X
Track quality 100.0 %
Test CRC 956BA50C
Copy CRC 956BA50C
Track not present in AccurateRip database
Copy OK
Track 4
Filename G:\POSTS\Kloud 9 - Enjoy The Ride (2008)\04 - All That Matters.wav
Pre-gap length 0:00:02.14
Peak level 100.0 %
Extraction speed 3.3 X
Track quality 100.0 %
Test CRC F7B3054C
Copy CRC F7B3054C
Track not present in AccurateRip database
Copy OK
Track 5
Filename G:\POSTS\Kloud 9 - Enjoy The Ride (2008)\05 - Grateful.wav
Pre-gap length 0:00:00.70
Peak level 100.0 %
Extraction speed 3.0 X
Track quality 99.9 %
Test CRC 5D286B9E
Copy CRC 5D286B9E
Track not present in AccurateRip database
Copy OK
Track 6
Filename G:\POSTS\Kloud 9 - Enjoy The Ride (2008)\06 - Step.wav
Pre-gap length 0:00:00.69
Peak level 100.0 %
Extraction speed 3.6 X
Track quality 100.0 %
Test CRC 6992088E
Copy CRC 6992088E
Track not present in AccurateRip database
Copy OK
Track 7
Filename G:\POSTS\Kloud 9 - Enjoy The Ride (2008)\07 - Love's Just Better With You.wav
Pre-gap length 0:00:01.55
Peak level 100.0 %
Extraction speed 3.7 X
Track quality 100.0 %
Test CRC 402C11D2
Copy CRC 402C11D2
Track not present in AccurateRip database
Copy OK
Track 8
Filename G:\POSTS\Kloud 9 - Enjoy The Ride (2008)\08 - Can't Hold This Love.wav
Pre-gap length 0:00:00.43
Peak level 100.0 %
Extraction speed 3.8 X
Track quality 100.0 %
Test CRC 0E49BF48
Copy CRC 0E49BF48
Track not present in AccurateRip database
Copy OK
Track 9
Filename G:\POSTS\Kloud 9 - Enjoy The Ride (2008)\09 - I'm Calling You.wav
Pre-gap length 0:00:01.57
Peak level 100.0 %
Extraction speed 4.1 X
Track quality 100.0 %
Test CRC 6AE68585
Copy CRC 6AE68585
Track not present in AccurateRip database
Copy OK
Track 10
Filename G:\POSTS\Kloud 9 - Enjoy The Ride (2008)\10 - To Have Your Love.wav
Pre-gap length 0:00:01.72
Peak level 100.0 %
Extraction speed 4.3 X
Track quality 100.0 %
Test CRC 9B3CCCB0
Copy CRC 9B3CCCB0
Track not present in AccurateRip database
Copy OK
Track 11
Filename G:\POSTS\Kloud 9 - Enjoy The Ride (2008)\11 - Enjoy The Ride.wav
Pre-gap length 0:00:01.10
Peak level 100.0 %
Extraction speed 4.0 X
Track quality 99.9 %
Test CRC C22D7E04
Copy CRC C22D7E04
Track not present in AccurateRip database
Copy OK
Track 12
Filename G:\POSTS\Kloud 9 - Enjoy The Ride (2008)\12 - Duffie's Theme.wav
Pre-gap length 0:00:02.34
Peak level 100.0 %
Extraction speed 4.5 X
Track quality 100.0 %
Test CRC 349A5C8A
Copy CRC 349A5C8A
Track not present in AccurateRip database
Copy OK
Track 13
Filename G:\POSTS\Kloud 9 - Enjoy The Ride (2008)\13 - Love's Just Better With You (The Realm Vocal Remix).wav
Pre-gap length 0:00:02.61
Peak level 100.0 %
Extraction speed 4.9 X
Track quality 100.0 %
Test CRC D05387BF
Copy CRC D05387BF
Track not present in AccurateRip database
Copy OK
None of the tracks are present in the AccurateRip database
No errors occurred
End of status report
==== Log checksum A7367394C4E05C590C935FDA8762B41DDD2A45F9DC5D83E943FE961A8800178A ====
 
Содержание индексной карты (.CUE)
REM GENRE R&B
REM DATE 2008
REM DISCID D50EC40D
REM COMMENT "ExactAudioCopy v1.0b3"
PERFORMER "Kloud 9"
TITLE "Enjoy The Ride"
FILE "01 - Everything That I Need.wav" WAVE
TRACK 01 AUDIO
TITLE "Everything That I Need"
PERFORMER "Kloud 9"
INDEX 01 00:00:00
TRACK 02 AUDIO
TITLE "Appreciation"
PERFORMER "Kloud 9"
INDEX 00 04:54:73
FILE "02 - Appreciation.wav" WAVE
INDEX 01 00:00:00
TRACK 03 AUDIO
TITLE "Never Give It Up"
PERFORMER "Kloud 9"
INDEX 00 04:21:55
FILE "03 - Never Give It Up.wav" WAVE
INDEX 01 00:00:00
TRACK 04 AUDIO
TITLE "All That Matters"
PERFORMER "Kloud 9"
INDEX 00 05:45:17
FILE "04 - All That Matters.wav" WAVE
INDEX 01 00:00:00
TRACK 05 AUDIO
TITLE "Grateful"
PERFORMER "Kloud 9"
INDEX 00 04:41:11
FILE "05 - Grateful.wav" WAVE
INDEX 01 00:00:00
TRACK 06 AUDIO
TITLE "Step"
PERFORMER "Kloud 9"
INDEX 00 04:01:09
FILE "06 - Step.wav" WAVE
INDEX 01 00:00:00
TRACK 07 AUDIO
TITLE "Love's Just Better With You"
PERFORMER "Kloud 9"
INDEX 00 04:16:01
FILE "07 - Love's Just Better With You.wav" WAVE
INDEX 01 00:00:00
TRACK 08 AUDIO
TITLE "Can't Hold This Love"
PERFORMER "Kloud 9"
INDEX 00 03:58:52
FILE "08 - Can't Hold This Love.wav" WAVE
INDEX 01 00:00:00
TRACK 09 AUDIO
TITLE "I'm Calling You"
PERFORMER "Kloud 9"
INDEX 00 04:25:74
FILE "09 - I'm Calling You.wav" WAVE
INDEX 01 00:00:00
TRACK 10 AUDIO
TITLE "To Have Your Love"
PERFORMER "Kloud 9"
INDEX 00 04:57:10
FILE "10 - To Have Your Love.wav" WAVE
INDEX 01 00:00:00
TRACK 11 AUDIO
TITLE "Enjoy The Ride"
PERFORMER "Kloud 9"
INDEX 00 04:43:65
FILE "11 - Enjoy The Ride.wav" WAVE
INDEX 01 00:00:00
TRACK 12 AUDIO
TITLE "Duffie's Theme"
PERFORMER "Kloud 9"
INDEX 00 05:04:45
FILE "12 - Duffie's Theme.wav" WAVE
INDEX 01 00:00:00
TRACK 13 AUDIO
TITLE "Love's Just Better With You (The Realm Vocal Remix)"
PERFORMER "Kloud 9"
INDEX 00 04:31:15
FILE "13 - Love's Just Better With You (The Realm Vocal Remix).wav" WAVE
INDEX 01 00:00:00
 
Об исполнителе (группе)
Kloud 9 are the brothers Kelvis and Kendall Duffie. Both started their career as part of a contemporary gospel group touring worldwide. Later they were working in the music industry being involved in radio promotions, artist development and production. Nevertheless they had a strong desire to make music themselves. So it was a naturally act, that they released in 1999 their first tune Soul Stepp’n on a compilation of Expansion Records.
 
Об альбоме (сборнике)
Kloud 9's new album Enjoy The Ride (2008) is just released on Expansion Records. The signature sound of the Duffie twins is the brilliant choral harmony as to shown on Everything That I Need. The smooth impression of their mellow vocals is intensified through the intensive use of falsetto.
Appreciation is a big word for the brothers. The role of the woman is important and the recognition of her work and efforts. Tom Hemby on guitar and Mel Brown on bass are accompanying Kloud 9's interpretation.
Never Give It Up is dedicated to Stevie Wonder. Kendall Duffie: "Stevie Wonder if you ever hear the song, just know that you have inspired the very core of my musical being. You are everything melodic, everything musical, everything lyrical and all things soulful! The song was musically inspired by you." It's only naturally that Jimmy Hall plays the harmonica on this tune in the style of Stevie Wonder.
All That Matters features sax player Donald Hayes. Donald is versatile in playing Gospel music, R&B and jazz. Reflections Vol. 2 and Quiet Times Vol. 2 are his own solo projects. Donald is known by his performance with legends like Stevie Wonder and John P. Kee.
Grateful has an awesome horn arrangement by Lloyd Barry which reminds of the music of Incognito. The horn formation consists of Vinnie Ciesilski (trumpet), Barry Green (trombone), Jimmy Bowland (alto ad baritone sax). Kendall Duffie is an excellent keyboardist who ingeniously weaves sounds of synths, moog bass and clavinet into the vocal recitation.
Complaining about the crazy world and the politicians never representing their struggle Kloud 9 find the escape on the dance floor. Step by step we forget our worries, for a certain time.
Love's Just Better With You sing the charmers and crooners Kelvis and Kendall. The song has a hypnotic up-tempo beat what makes the song very danceable. Dwayne Walker is responsible for the keyboards and synth doing a good job. Dwayne also performed on Kloud 9's second album.
Can't Hold This Love is featuring female singer Tamara Jones. Her attractive vocals can also be heard on albums of Rhonda Smith, Glenn Jones and more. Tamara is also member of the group New Memphis Underground.
The longing of a lonely man finds its expression in I'm Calling You. Great vocals and mesmerizing harmonies! Tom Hemby adds gracious guitar riffs. In the centre of most songs like To Have Your Love stands the relationship between man and woman.
The title song Enjoy The Ride features flutist Althea Rene. She has an incredible touch. She recently released her fourth album No Restrictions, a collaboration with Grammy-winning producer Michael Broening. Duffie's Theme was written in loving memory of Curtis Duffie. It's the only instrumental on this album showcasing more of Kendall Duffie's indisputable talent on keys.
Love's Better With You (The Realm Vocal Mix) is finishing the album. The remix was made by Toni Economides and Oli Lazarus. An up-tempo and propulsive tune, just made for the dance floor.
With Enjoy The Ride Kloud 9 fulfills the dreams of all Soul fans worldwide. We don't talk about reputation and awards but the ultimate pleasure for all listeners.
Приватный:
Нет (DHT включён)
Размер:
634.90 Мб (665,742,019 байт) » файлов: 28
Участники:
0 раздают, 0 качают (0 участников всего)
Внешние участники:
1 раздают, 0 качают (1 участников всего) [ Обновить ]
Есть вопросы - пишите личное сообщение пользователю M0p94ok.
08:56
62
Нет комментариев. Ваш будет первым!