Поиск

(Funk, Soul) [CD] Isis - Isis - 1974 (2007 Japan Edition), FLAC (tracks+.cue), lossless

(Funk, Soul) [CD] Isis - Isis - 1974 (2007 Japan Edition), FLAC (tracks+.cue), lossless
Треклист:
Isis - Isis
Жанр: Funk, Soul
Носитель: CD
Страна-производитель диска (релиза): Япония
Год издания: 1974 (2007)
Издатель (лейбл): Vivid Sound Corporation/Muskrat Records
Номер по каталогу: RATCD-4269
Страна исполнителя (группы): США
Аудиокодек: FLAC (*.flac)
Тип рипа: tracks+.cue
Битрейт аудио: lossless
Продолжительность: 44:10
Источник (релизер): khalmandcollected (what)
Наличие сканов в содержимом раздачи: нет
Треклист:
01. Waiting for the Sonrise (4:57)
02. Everybody Needs a Forever (4:44)
03. Servant Saviour (7:47)
04. Rubber Boy (6:22)
05. April Fool (5:26)
06. Bitter Sweet (4:08)
07. Do the Football (2:55)
08. She Loves Me (4:45)
09. Cocaine Elaine (3:06)
 
Лог создания рипа
Exact Audio Copy V1.0 beta 6 from 9. April 2015
EAC extraction logfile from 28. May 2015, 14:17
Isis / Isis
Used drive : LITE-ON DVD+RW SOHW-802S Adapter: 1 ID: 0
Read mode : Secure
Utilize accurate stream : Yes
Defeat audio cache : Yes
Make use of C2 pointers : No
Read offset correction : 12
Overread into Lead-In and Lead-Out : No
Fill up missing offset samples with silence : Yes
Delete leading and trailing silent blocks : No
Null samples used in CRC calculations : Yes
Used interface : Native Win32 interface for Win NT & 2000
Gap handling : Appended to previous track
Used output format : User Defined Encoder
Selected bitrate : 1024 kBit/s
Quality : High
Add ID3 tag : No
Command line compressor : C:\Program Files\FLAC\flac.exe
Additional command line options : -8 -V -T "ARTIST=%artist%" -T "TITLE=%title%" -T "ALBUM=%albumtitle%" -T "DATE=%year%" -T "TRACKNUMBER=%tracknr%" -T "GENRE=%genre%" -T "PERFORMER=%albuminterpret%" -T "COMPOSER=%composer%" %haslyrics%--tag-from-file=LYRICS="%lyricsfile%"%haslyrics% -T "ALBUMARTIST=%albumartist%" -T "DISCNUMBER=%cdnumber%" -T "TOTALDISCS=%totalcds%" -T "TOTALTRACKS=%numtracks%" -T "COMMENT=%comment%" %source% -o %dest%
TOC of the extracted CD
Track | Start | Length | Start sector | End sector
---------------------------------------------------------
1 | 0:00.00 | 4:56.49 | 0 | 22248
2 | 4:56.49 | 4:43.73 | 22249 | 43546
3 | 9:40.47 | 7:47.14 | 43547 | 78585
4 | 17:27.61 | 6:21.60 | 78586 | 107220
5 | 23:49.46 | 5:25.59 | 107221 | 131654
6 | 29:15.30 | 4:08.22 | 131655 | 150276
7 | 33:23.52 | 2:55.14 | 150277 | 163415
8 | 36:18.66 | 4:44.44 | 163416 | 184759
9 | 41:03.35 | 3:05.52 | 184760 | 198686
Track 1
Filename C:\Users\kqwiet\Desktop\Music Conversions\01 - Waiting For the Sonrise.wav
Pre-gap length 0:00:02.00
Peak level 94.3 %
Extraction speed 2.3 X
Track quality 100.0 %
Test CRC C191E81F
Copy CRC C191E81F
Track not present in AccurateRip database
Copy OK
Track 2
Filename C:\Users\kqwiet\Desktop\Music Conversions\02 - Everybody Needs A Forever.wav
Peak level 94.3 %
Extraction speed 2.6 X
Track quality 100.0 %
Test CRC 81268D28
Copy CRC 81268D28
Track not present in AccurateRip database
Copy OK
Track 3
Filename C:\Users\kqwiet\Desktop\Music Conversions\03 - Servant Saviour.wav
Peak level 94.3 %
Extraction speed 2.9 X
Track quality 100.0 %
Test CRC 27581562
Copy CRC 27581562
Track not present in AccurateRip database
Copy OK
Track 4
Filename C:\Users\kqwiet\Desktop\Music Conversions\04 - Rubber Boy.wav
Peak level 94.3 %
Extraction speed 3.3 X
Track quality 99.9 %
Test CRC 049B57FE
Copy CRC 049B57FE
Track not present in AccurateRip database
Copy OK
Track 5
Filename C:\Users\kqwiet\Desktop\Music Conversions\05 - April Fool.wav
Peak level 94.3 %
Extraction speed 3.6 X
Track quality 100.0 %
Test CRC 5AEE6970
Copy CRC 5AEE6970
Track not present in AccurateRip database
Copy OK
Track 6
Filename C:\Users\kqwiet\Desktop\Music Conversions\06 - Bitter Sweet.wav
Peak level 94.3 %
Extraction speed 3.7 X
Track quality 99.9 %
Test CRC 83FFA167
Copy CRC 83FFA167
Track not present in AccurateRip database
Copy OK
Track 7
Filename C:\Users\kqwiet\Desktop\Music Conversions\07 - Do The Football.wav
Peak level 94.3 %
Extraction speed 3.7 X
Track quality 100.0 %
Test CRC 72BEC92B
Copy CRC 72BEC92B
Track not present in AccurateRip database
Copy OK
Track 8
Filename C:\Users\kqwiet\Desktop\Music Conversions\08 - She Loves Me.wav
Peak level 94.3 %
Extraction speed 3.9 X
Track quality 100.0 %
Test CRC BEB2153E
Copy CRC BEB2153E
Track not present in AccurateRip database
Copy OK
Track 9
Filename C:\Users\kqwiet\Desktop\Music Conversions\09 - Cocaine Elaine.wav
Peak level 94.3 %
Extraction speed 3.1 X
Track quality 100.0 %
Test CRC BF70F56C
Copy CRC BF70F56C
Track not present in AccurateRip database
Copy OK
None of the tracks are present in the AccurateRip database
No errors occurred
End of status report
---- CUETools DB Plugin V2.1.6
[CTDB TOCID: rQoISGwwYtix.tuUJ9flWO6UDXY-] found
Submit result: already submitted
Track | CTDB Status
1 | (1/1) Accurately ripped
2 | (1/1) Accurately ripped
3 | (1/1) Accurately ripped
4 | (1/1) Accurately ripped
5 | (1/1) Accurately ripped
6 | (1/1) Accurately ripped
7 | (1/1) Accurately ripped
8 | (1/1) Accurately ripped
9 | (1/1) Accurately ripped
==== Log checksum D9E89EA8C7904B214FFF8D9FAB8E401D8C4224E968E120858F65D3C61BB79E5A ====
 
Содержание индексной карты (.CUE)
REM GENRE Jazz
REM DATE 1974
REM DISCID 720A5909
REM COMMENT "ExactAudioCopy v1.0b6"
PERFORMER "Isis"
TITLE "Isis"
FILE "01 - Waiting for the Sonrise.wav" WAVE
TRACK 01 AUDIO
TITLE "Waiting for the Sonrise"
PERFORMER "Isis"
INDEX 01 00:00:00
FILE "02 - Everybody Needs a Forever.wav" WAVE
TRACK 02 AUDIO
TITLE "Everybody Needs a Forever"
PERFORMER "Isis"
INDEX 01 00:00:00
FILE "03 - Servant Saviour.wav" WAVE
TRACK 03 AUDIO
TITLE "Servant Saviour"
PERFORMER "Isis"
INDEX 01 00:00:00
FILE "04 - Rubber Boy.wav" WAVE
TRACK 04 AUDIO
TITLE "Rubber Boy"
PERFORMER "Isis"
INDEX 01 00:00:00
FILE "05 - April Fool.wav" WAVE
TRACK 05 AUDIO
TITLE "April Fool"
PERFORMER "Isis"
INDEX 01 00:00:00
FILE "06 - Bitter Sweet.wav" WAVE
TRACK 06 AUDIO
TITLE "Bitter Sweet"
PERFORMER "Isis"
INDEX 01 00:00:00
FILE "07 - Do the Football.wav" WAVE
TRACK 07 AUDIO
TITLE "Do the Football"
PERFORMER "Isis"
INDEX 01 00:00:00
FILE "08 - She Loves Me.wav" WAVE
TRACK 08 AUDIO
TITLE "She Loves Me"
PERFORMER "Isis"
INDEX 01 00:00:00
FILE "09 - Cocaine Elaine.wav" WAVE
TRACK 09 AUDIO
TITLE "Cocaine Elaine"
PERFORMER "Isis"
INDEX 01 00:00:00
 
Отчет CUETools
[CUETools log; Date: 21.06.2015 23:07:28; Version: 2.1.5]
[CTDB TOCID: rQoISGwwYtix.tuUJ9flWO6UDXY-] found.
Track | CTDB Status
1 | (1/1) Accurately ripped
2 | (1/1) Accurately ripped
3 | (1/1) Accurately ripped
4 | (1/1) Accurately ripped
5 | (1/1) Accurately ripped
6 | (1/1) Accurately ripped
7 | (1/1) Accurately ripped
8 | (1/1) Accurately ripped
9 | (1/1) Accurately ripped
[AccurateRip ID: 00107c4e-00776470-720a5909] found.
Track [ CRC | V2 ] Status
01 [4be108a5|84030c31] (0+1/1) Accurately ripped
02 [f1cb3f38|803c4e80] (0+1/1) Accurately ripped
03 [54c6d8d0|abec7bfc] (0+1/1) Accurately ripped
04 [4adb0c60|2cb8cd4e] (0+1/1) Accurately ripped
05 [e026821a|836cc1eb] (0+1/1) Accurately ripped
06 [c7a2dea4|a6efab08] (0+1/1) Accurately ripped
07 [c1396bbe|63b4ff6e] (0+1/1) Accurately ripped
08 [588146f2|fd8e2eee] (0+1/1) Accurately ripped
09 [99c3556f|8b0a1e0f] (0+1/1) Accurately ripped
Track Peak [ CRC32 ] [W/O NULL] [ LOG ]
-- 94,3 [80F6ED05] [24598C6E]
01 94,3 [C191E81F] [64E69834] CRC32
02 94,3 [81268D28] [334D4746] CRC32
03 94,3 [27581562] [D8C5D677] CRC32
04 94,3 [049B57FE] [35DEA529] CRC32
05 94,3 [5AEE6970] [5986758F] CRC32
06 94,3 [83FFA167] [DEACE915] CRC32
07 94,3 [72BEC92B] [42A5F085] CRC32
08 94,3 [BEB2153E] [885C98CF] CRC32
09 94,3 [BF70F56C] [3112517D] CRC32
 
Review by Joe Viglione
Isis is the Egyptian goddess of fertility, represented as wearing a cow's horns and solar disk on her head, according to the World Book Dictionary, and the name was perhaps most appropriate for this '70s band, though a Latin group, a rapper, and a metal band all have released records under the same name. Those artists have nothing to do with this interesting and highly experimental project. With production by Shadow Morton the same year he produced the New York Dolls' second LP, In Too Much Too Soon, two former members of Goldie & the Gingerbreads debut on Buddah with a self-titled eclectic jazz/rock amalgam. As Gingerbreads' lead singer Goldie Zelkowitz re-emerged as Genya Ravan, both Carol MacDonald and drummer Ginger Bianco redefined their musical vision, developing this somewhat original concept with horns, congas, bongos, and heavy emphasis on the all-girl band which Goldie & the Gingerbreads pioneered. Sporting an album cover rife with Egyptian imagery much like Yoko Ono's album from the year before, the 1973 epic Feeling the Space, Isis take it a step further, the cover photo sporting the eight women encased in silver via Jon Stevens' "metal images" which are "precise reproductions of the human form." Reproductions or no, the band is still totally naked on the front cover under palm trees, a pyramid, and a purple sky. It was striking for the time and hinted at glam rock. Although there is barely any of that element here, perhaps some of the guitar psychedelia on "Servant Saviour" would suffice as that, resplendent in mellow versions of Black Sabbath riffs, but the style vocally and musically is very much like a less-focused Ten Wheel Drive. MacDonald emulates Genya Ravan singing, and much of the music parallels the Ten Wheel Drive sound. There are 16 naked photos of the chrome silver gals on the back cover flanked by color photos of the Sphynx. No wonder the rumor mill had David Bowie singing their praises, just as the Rolling Stones were enamored of Goldie & the Gingerbreads. "She Loves Me" can't be any more specific; it's a bluesy ballad and one of the album's best moments. As blatant as the title is, the song comes across more subtle. Seven of the nine tunes were written by the former Gingerbreads Carol MacDonald and Ginger Bianco, and they shift gears perhaps too much for the album's own good. How prophetic. The bisexual female character on Star Trek Voyager two-and-a-half decades later would be called "7 of 9" -- and as Bowie had much success with the gay theme, it should have been more of a factor. "Cocaine Elaine" has a bluesy New Orleans feel with wonderful backing vocals, but the musical genres jump so much it feels like a movie soundtrack. 1975's follow-up album was produced by Allen Toussaint and featured June Millington from another significant pioneering all-girl group, Fanny, but sadly, this Isis only put out two albums.
Приватный:
Нет (DHT включён)
Размер:
252.79 Мб (265,067,343 байт) » файлов: 17
Участники:
0 раздают, 0 качают (0 участников всего)
Внешние участники:
5 раздают, 1 качают (6 участников всего) [ Обновить ]
Есть вопросы - пишите личное сообщение пользователю M0p94ok.
06:36
98
Нет комментариев. Ваш будет первым!