Поиск

(Soul, Gospel) [CD] Leon Bridges - Coming Home - 2015, FLAC (image+.cue), lossless

(Soul, Gospel) [CD] Leon Bridges - Coming Home - 2015, FLAC (image+.cue), lossless
Треклист:
Leon Bridges - Coming Home
Жанр: Soul, Gospel
Носитель: CD
Страна-производитель диска (релиза): EU
Год издания: 2015
Издатель (лейбл): Columbia
Номер по каталогу: 88875089142
Страна исполнителя (группы): USA
Аудиокодек: FLAC (*.flac)
Тип рипа: image+.cue
Битрейт аудио: lossless
Продолжительность: 00:34:17
Источник (релизер): UseNet
Наличие сканов в содержимом раздачи: да
-= ОФИЦИАЛЬНЫЙ САЙТ =-
Треклист:
01. Coming Home [3:26]
02. Better Man [2:21]
03. Brown Skin Girl [3:27]
04. Smooth Sailin' [3:07]
05. Shine [3:39]
06. Lisa Sawyer [4:05]
07. Flowers [2:57]
08. Pull Away [3:02]
09. Twistin' & Groovin' [4:14]
10. River [3:59]
 
Лог создания рипа
Exact Audio Copy V1.0 beta 6 from 9. April 2015
EAC extraction logfile from 21. June 2015, 14:00
Leon Bridges / Coming Home
Used drive : hp CDDVDW SH-216DB Adapter: 1 ID: 0
Read mode : Secure
Utilize accurate stream : Yes
Defeat audio cache : Yes
Make use of C2 pointers : No
Read offset correction : 6
Overread into Lead-In and Lead-Out : No
Fill up missing offset samples with silence : Yes
Delete leading and trailing silent blocks : No
Null samples used in CRC calculations : Yes
Used interface : Native Win32 interface for Win NT & 2000
Used output format : Internal WAV Routines
Sample format : 44.100 Hz; 16 Bit; Stereo
TOC of the extracted CD
Track | Start | Length | Start sector | End sector
---------------------------------------------------------
1 | 0:00.00 | 3:26.29 | 0 | 15478
2 | 3:26.29 | 2:21.30 | 15479 | 26083
3 | 5:47.59 | 3:26.44 | 26084 | 41577
4 | 9:14.28 | 3:07.33 | 41578 | 55635
5 | 12:21.61 | 3:38.61 | 55636 | 72046
6 | 16:00.47 | 4:05.23 | 72047 | 90444
7 | 20:05.70 | 2:57.13 | 90445 | 103732
8 | 23:03.08 | 3:02.01 | 103733 | 117383
9 | 26:05.09 | 4:14.13 | 117384 | 136446
10 | 30:19.22 | 3:58.42 | 136447 | 154338
Range status and errors
Selected range
Filename E:\POST\Leon Bridges - Coming Home (EAC)\Leon Bridges - Coming Home.wav
Peak level 100.0 %
Extraction speed 2.6 X
Range quality 100.0 %
Test CRC 28ACD163
Copy CRC 28ACD163
Copy OK
No errors occurred
AccurateRip summary
Track 1 not present in database
Track 2 not present in database
Track 3 not present in database
Track 4 not present in database
Track 5 not present in database
Track 6 not present in database
Track 7 not present in database
Track 8 not present in database
Track 9 not present in database
Track 10 not present in database
None of the tracks are present in the AccurateRip database
End of status report
 
Содержание индексной карты (.CUE)
REM GENRE Soul
REM DATE 2015
REM DISCID 8508090A
REM COMMENT "ExactAudioCopy v1.0b6"
PERFORMER "Leon Bridges"
TITLE "Coming Home"
FILE "Leon Bridges - Coming Home.wav" WAVE
TRACK 01 AUDIO
TITLE "Coming Home"
PERFORMER "Leon Bridges"
INDEX 01 00:00:00
TRACK 02 AUDIO
TITLE "Better Man"
PERFORMER "Leon Bridges"
INDEX 01 03:26:29
TRACK 03 AUDIO
TITLE "Brown Skin Girl"
PERFORMER "Leon Bridges"
INDEX 00 05:46:39
INDEX 01 05:47:59
TRACK 04 AUDIO
TITLE "Smooth Sailin'"
PERFORMER "Leon Bridges"
INDEX 01 09:14:28
TRACK 05 AUDIO
TITLE "Shine"
PERFORMER "Leon Bridges"
INDEX 00 12:17:53
INDEX 01 12:21:61
TRACK 06 AUDIO
TITLE "Lisa Sawyer"
PERFORMER "Leon Bridges"
INDEX 00 15:59:23
INDEX 01 16:00:47
TRACK 07 AUDIO
TITLE "Flowers"
PERFORMER "Leon Bridges"
INDEX 00 20:04:39
INDEX 01 20:05:70
TRACK 08 AUDIO
TITLE "Pull Away"
PERFORMER "Leon Bridges"
INDEX 00 23:02:61
INDEX 01 23:03:08
TRACK 09 AUDIO
TITLE "Twistin' & Groovin'"
PERFORMER "Leon Bridges"
INDEX 00 26:03:12
INDEX 01 26:05:09
TRACK 10 AUDIO
TITLE "River"
PERFORMER "Leon Bridges"
INDEX 00 30:17:03
INDEX 01 30:19:22
 
Лог проверки качества
fooCDtect - foobar2000 + auCDtect, baralgin.
auCDtect: CD records authenticity detector, version 0.8.2
Copyright (c) 2004 Oleg Berngardt. All rights reserved.
Copyright (c) 2004 Alexander Djourik. All rights reserved.
mode: 0
===========================================
Track: 01. Leon Bridges - Coming Home
Processing file: [01. Leon Bridges - Coming Home.aucdtect]
Detected average hi-boundary frequency: 2.035791e+004 Hz
Detected average lo-boundary frequency: 1.300998e+004 Hz
Detected average hi-cut frequency: 2.037076e+004 Hz
Detected average lo-cut frequency: 6.482279e+003 Hz
Maximum probablis boundary frequency: 2.189100e+004 Hz
Coefficient of nonlinearity of a phase: 1.611988e+000
First order smothness: 3.315242e-001
Second order smothness: 5.730439e-001
------------------------------------------------------------
This track looks like CDDA with probability 100%
===========================================
Track: 02. Leon Bridges - Better Man
Processing file: [02. Leon Bridges - Better Man.aucdtect]
Detected average hi-boundary frequency: 2.039895e+004 Hz
Detected average lo-boundary frequency: 1.431344e+004 Hz
Detected average hi-cut frequency: 2.058693e+004 Hz
Detected average lo-cut frequency: 6.209661e+003 Hz
Maximum probablis boundary frequency: 2.189100e+004 Hz
Coefficient of nonlinearity of a phase: 6.171469e-001
First order smothness: 3.788282e-001
Second order smothness: 4.673768e-001
------------------------------------------------------------
This track looks like CDDA with probability 100%
===========================================
Track: 03. Leon Bridges - Brown Skin Girl
Processing file: [03. Leon Bridges - Brown Skin Girl.aucdtect]
Detected average hi-boundary frequency: 2.027584e+004 Hz
Detected average lo-boundary frequency: 1.297244e+004 Hz
Detected average hi-cut frequency: 2.030416e+004 Hz
Detected average lo-cut frequency: 6.455692e+003 Hz
Maximum probablis boundary frequency: 2.189100e+004 Hz
Coefficient of nonlinearity of a phase: 1.031885e+000
First order smothness: 3.575293e-001
Second order smothness: 5.446348e-001
------------------------------------------------------------
This track looks like CDDA with probability 100%
===========================================
Track: 04. Leon Bridges - Smooth Sailin'
Processing file: [04. Leon Bridges - Smooth Sailin'.aucdtect]
Detected average hi-boundary frequency: 1.995757e+004 Hz
Detected average lo-boundary frequency: 1.190625e+004 Hz
Detected average hi-cut frequency: 2.126377e+004 Hz
Detected average lo-cut frequency: 7.763113e+003 Hz
Maximum probablis boundary frequency: 2.189100e+004 Hz
Coefficient of nonlinearity of a phase: 1.187296e+000
First order smothness: 3.383992e-001
Second order smothness: 4.979737e-001
------------------------------------------------------------
This track looks like CDDA with probability 100%
===========================================
Track: 05. Leon Bridges - Shine
Processing file: [05. Leon Bridges - Shine.aucdtect]
Detected average hi-boundary frequency: 1.988818e+004 Hz
Detected average lo-boundary frequency: 1.175151e+004 Hz
Detected average hi-cut frequency: 2.134052e+004 Hz
Detected average lo-cut frequency: 5.654357e+003 Hz
Maximum probablis boundary frequency: 2.189100e+004 Hz
Coefficient of nonlinearity of a phase: 1.139676e+000
First order smothness: 3.407439e-001
Second order smothness: 5.854701e-001
------------------------------------------------------------
This track looks like CDDA with probability 100%
===========================================
Track: 06. Leon Bridges - Lisa Sawyer
Processing file: [06. Leon Bridges - Lisa Sawyer.aucdtect]
Detected average hi-boundary frequency: 2.033886e+004 Hz
Detected average lo-boundary frequency: 1.285058e+004 Hz
Detected average hi-cut frequency: 2.083407e+004 Hz
Detected average lo-cut frequency: 7.337389e+003 Hz
Maximum probablis boundary frequency: 2.189100e+004 Hz
Coefficient of nonlinearity of a phase: 3.917712e-001
First order smothness: 3.777609e-001
Second order smothness: 5.818736e-001
------------------------------------------------------------
This track looks like CDDA with probability 100%
===========================================
Track: 07. Leon Bridges - Flowers
Processing file: [07. Leon Bridges - Flowers.aucdtect]
Detected average hi-boundary frequency: 2.015750e+004 Hz
Detected average lo-boundary frequency: 1.241192e+004 Hz
Detected average hi-cut frequency: 2.091813e+004 Hz
Detected average lo-cut frequency: 5.050359e+003 Hz
Maximum probablis boundary frequency: 2.189100e+004 Hz
Coefficient of nonlinearity of a phase: 6.906576e-001
First order smothness: 3.447368e-001
Second order smothness: 4.694737e-001
------------------------------------------------------------
This track looks like CDDA with probability 99%
===========================================
Track: 08. Leon Bridges - Pull Away
Processing file: [08. Leon Bridges - Pull Away.aucdtect]
Detected average hi-boundary frequency: 2.022655e+004 Hz
Detected average lo-boundary frequency: 1.283744e+004 Hz
Detected average hi-cut frequency: 2.068167e+004 Hz
Detected average lo-cut frequency: 6.177779e+003 Hz
Maximum probablis boundary frequency: 2.189100e+004 Hz
Coefficient of nonlinearity of a phase: 1.616140e+000
First order smothness: 3.459152e-001
Second order smothness: 6.215098e-001
------------------------------------------------------------
This track looks like CDDA with probability 100%
===========================================
Track: 09. Leon Bridges - Twistin' & Groovin'
Processing file: [09. Leon Bridges - Twistin' & Groovin'.aucdtect]
Detected average hi-boundary frequency: 2.041153e+004 Hz
Detected average lo-boundary frequency: 1.448056e+004 Hz
Detected average hi-cut frequency: 2.089114e+004 Hz
Detected average lo-cut frequency: 9.396393e+003 Hz
Maximum probablis boundary frequency: 2.189100e+004 Hz
Coefficient of nonlinearity of a phase: 1.176880e-001
First order smothness: 4.022861e-001
Second order smothness: 5.398230e-001
------------------------------------------------------------
This track looks like CDDA with probability 100%
===========================================
Track: 10. Leon Bridges - River
Processing file: [10. Leon Bridges - River.aucdtect]
Detected average hi-boundary frequency: 2.029468e+004 Hz
Detected average lo-boundary frequency: 1.268799e+004 Hz
Detected average hi-cut frequency: 2.030092e+004 Hz
Detected average lo-cut frequency: 8.670993e+003 Hz
Maximum probablis boundary frequency: 2.189100e+004 Hz
Coefficient of nonlinearity of a phase: 1.381618e+000
First order smothness: 3.826870e-001
Second order smothness: 6.353310e-001
------------------------------------------------------------
This track looks like CDDA with probability 100%
===========================================
 
Динамический диапазон
foobar2000 1.2.8 / Dynamic Range Meter 1.1.1
log date: 2015-06-21 21:28:52
--------------------------------------------------------------------------------
Analyzed: Leon Bridges / Coming Home
--------------------------------------------------------------------------------
DR Peak RMS Duration Track
--------------------------------------------------------------------------------
DR6 0.00 dB -8.00 dB 3:26 01-Coming Home
DR7 -0.02 dB -7.63 dB 2:21 02-Better Man
DR8 0.00 dB -9.19 dB 3:27 03-Brown Skin Girl
DR7 -0.30 dB -8.06 dB 3:07 04-Smooth Sailin'
DR7 0.00 dB -8.97 dB 3:39 05-Shine
DR7 0.00 dB -8.58 dB 4:05 06-Lisa Sawyer
DR6 0.00 dB -7.65 dB 2:57 07-Flowers
DR7 -0.02 dB -8.50 dB 3:02 08-Pull Away
DR7 0.00 dB -8.65 dB 4:14 09-Twistin' & Groovin'
DR10 -0.18 dB -14.62 dB 3:59 10-River
--------------------------------------------------------------------------------
Number of tracks: 10
Official DR value: DR7
Samplerate: 44100 Hz
Channels: 2
Bits per sample: 16
Bitrate: 872 kbps
Codec: FLAC
================================================================================
Приватный:
Нет (DHT включён)
Размер:
221.91 Мб (232,688,012 байт) » файлов: 9
Участники:
0 раздают, 0 качают (0 участников всего)
Внешние участники:
2 раздают, 1 качают (3 участников всего) [ Обновить ]
Есть вопросы - пишите личное сообщение пользователю M0p94ok.
06:35
56
Нет комментариев. Ваш будет первым!