Поиск

(Funk, Soul) [CD] Earth, Wind & Fire - Open Our Eyes - 1974 (2015 Audio Fidelity), FLAC (tracks+.cue), lossless

(Funk, Soul) [CD] Earth, Wind & Fire - Open Our Eyes - 1974 (2015 Audio Fidelity), FLAC (tracks+.cue), lossless
Треклист:
Earth, Wind & Fire - Open Our Eyes
Жанр: Funk, Soul
Носитель: CD
Страна-производитель диска (релиза): США
Год издания: 1974 (2015)
Издатель (лейбл): Audio Fidelity
Номер по каталогу: AFZ5 202
Аудиокодек: FLAC (*.flac)
Тип рипа: tracks+.cue
Битрейт аудио: lossless
Продолжительность: 40:17
Источник (релизер): mclarenspy
Наличие сканов в содержимом раздачи: да
Треклист:
01. Mighty Mighty (3:06)
02. Devotion (4:54)
03. Fair But So Uncool (3:42)
04. Feelin' Blue (4:31)
05. Kalimba Story (4:09)
06. Drum Song (5:11)
07. Tee Nine Chee Bit (3:46)
08. Spasmodic Movements (1:51)
09. Rabbit Seed (0:32)
10. Caribou (3:27)
11. Open Our Eyes (5:08)
 
Лог создания рипа
Exact Audio Copy V1.3 from 2. September 2016
EAC extraction logfile from 18. July 2017, 22:09
Earth, Wind & Fire / Open Our Eyes (2015 AF)
Used drive : PLEXTOR CD-R PREMIUM Adapter: 1 ID: 1
Read mode : Secure
Utilize accurate stream : Yes
Defeat audio cache : Yes
Make use of C2 pointers : No
Read offset correction : 30
Overread into Lead-In and Lead-Out : No
Fill up missing offset samples with silence : Yes
Delete leading and trailing silent blocks : No
Null samples used in CRC calculations : Yes
Used interface : Native Win32 interface for Win NT & 2000
Gap handling : Appended to previous track
Used output format : User Defined Encoder
Selected bitrate : 768 kBit/s
Quality : High
Add ID3 tag : No
Command line compressor : C:\Program Files (x86)\Exact Audio Copy\FLAC\FLAC.EXE
Additional command line options : -6 -e -p -V -T "ARTIST=%artist%" -T "TITLE=%title%" -T "ALBUM=%albumtitle%" -T "DATE=%year%" -T "TRACKNUMBER=%tracknr%" -T "GENRE=%genre%" -T "PERFORMER=%albuminterpret%" -T "COMPOSER=%composer%" %haslyrics%--tag-from-file=LYRICS="%lyricsfile%"%haslyrics% -T "ALBUMARTIST=%albumartist%" -T "DISCNUMBER=%cdnumber%" -T "TOTALDISCS=%totalcds%" -T "TOTALTRACKS=%numtracks%" -T "COMMENT=%comment%" %source% -o %dest%
TOC of the extracted CD
Track | Start | Length | Start sector | End sector
---------------------------------------------------------
1 | 0:00.00 | 3:05.68 | 0 | 13942
2 | 3:05.68 | 4:53.57 | 13943 | 35974
3 | 7:59.50 | 3:42.16 | 35975 | 52640
4 | 11:41.66 | 4:31.25 | 52641 | 72990
5 | 16:13.16 | 4:09.28 | 72991 | 91693
6 | 20:22.44 | 5:10.73 | 91694 | 115016
7 | 25:33.42 | 3:46.08 | 115017 | 131974
8 | 29:19.50 | 1:50.43 | 131975 | 140267
9 | 31:10.18 | 0:32.35 | 140268 | 142702
10 | 31:42.53 | 3:27.16 | 142703 | 158243
11 | 35:09.69 | 5:07.48 | 158244 | 181316
Track 1
Filename C:\tmp\00_RIPS\01 - Mighty Mighty.wav
Pre-gap length 0:00:02.00
Peak level 98.3 %
Extraction speed 7.3 X
Track quality 99.9 %
Test CRC A9497FE9
Copy CRC A9497FE9
Accurately ripped (confidence 21) [ADDBF559] (AR v2)
Copy OK
Track 2
Filename C:\tmp\00_RIPS\02 - Devotion.wav
Peak level 83.3 %
Extraction speed 9.4 X
Track quality 100.0 %
Test CRC 5E8A77A9
Copy CRC 5E8A77A9
Accurately ripped (confidence 21) [2972649E] (AR v2)
Copy OK
Track 3
Filename C:\tmp\00_RIPS\03 - Fair But So Uncool.wav
Peak level 93.8 %
Extraction speed 10.3 X
Track quality 100.0 %
Test CRC 738B5DE4
Copy CRC 738B5DE4
Accurately ripped (confidence 21) [6F19EF90] (AR v2)
Copy OK
Track 4
Filename C:\tmp\00_RIPS\04 - Feelin' Blue.wav
Peak level 92.3 %
Extraction speed 11.0 X
Track quality 100.0 %
Test CRC 2F89619B
Copy CRC 2F89619B
Accurately ripped (confidence 21) [33294FA5] (AR v2)
Copy OK
Track 5
Filename C:\tmp\00_RIPS\05 - Kalimba Story.wav
Peak level 82.4 %
Extraction speed 11.7 X
Track quality 100.0 %
Test CRC 842E10AA
Copy CRC 842E10AA
Accurately ripped (confidence 21) [50DD0250] (AR v2)
Copy OK
Track 6
Filename C:\tmp\00_RIPS\06 - Drum Song.wav
Peak level 87.9 %
Extraction speed 12.5 X
Track quality 100.0 %
Test CRC 4FA5347A
Copy CRC 4FA5347A
Accurately ripped (confidence 21) [B784249B] (AR v2)
Copy OK
Track 7
Filename C:\tmp\00_RIPS\07 - Tee Nine Chee Bit.wav
Peak level 96.7 %
Extraction speed 10.6 X
Track quality 99.9 %
Test CRC 18880644
Copy CRC 18880644
Accurately ripped (confidence 21) [60644906] (AR v2)
Copy OK
Track 8
Filename C:\tmp\00_RIPS\08 - Spasmodic Movements.wav
Peak level 80.9 %
Extraction speed 8.8 X
Track quality 99.9 %
Test CRC 97731EED
Copy CRC 97731EED
Accurately ripped (confidence 21) [18283B4F] (AR v2)
Copy OK
Track 9
Filename C:\tmp\00_RIPS\09 - Rabbit Seed.wav
Peak level 37.6 %
Extraction speed 9.3 X
Track quality 100.0 %
Test CRC EAA61D91
Copy CRC EAA61D91
Accurately ripped (confidence 21) [136AB941] (AR v2)
Copy OK
Track 10
Filename C:\tmp\00_RIPS\10 - Caribou.wav
Peak level 81.1 %
Extraction speed 13.1 X
Track quality 100.0 %
Test CRC F08FC982
Copy CRC F08FC982
Accurately ripped (confidence 21) [0B4DC039] (AR v2)
Copy OK
Track 11
Filename C:\tmp\00_RIPS\11 - Open Our Eyes.wav
Peak level 88.9 %
Extraction speed 13.0 X
Track quality 100.0 %
Test CRC D7263623
Copy CRC D7263623
Accurately ripped (confidence 21) [DB7F0886] (AR v2)
Copy OK
All tracks accurately ripped
No errors occurred
End of status report
---- CUETools DB Plugin V2.1.6
[CTDB TOCID: Hhdka5VtKJpXwtdQhl4vrpdjJRM-] found
Submit result: Hhdka5VtKJpXwtdQhl4vrpdjJRM- has been confirmed
Track | CTDB Status
1 | (13/13) Accurately ripped
2 | (13/13) Accurately ripped
3 | (13/13) Accurately ripped
4 | (13/13) Accurately ripped
5 | (13/13) Accurately ripped
6 | (13/13) Accurately ripped
7 | (13/13) Accurately ripped
8 | (13/13) Accurately ripped
9 | (13/13) Accurately ripped
10 | (13/13) Accurately ripped
11 | (13/13) Accurately ripped
==== Log checksum 8FF22AB6A69B7FDFECA5C86C268336612BDF3D6BBA2717C3F8D3F86B71618064 ====
 
Содержание индексной карты (.CUE)
REM GENRE Funk
REM DATE 1974
REM DISCID 8909710B
REM COMMENT "ExactAudioCopy v1.3"
PERFORMER "Earth, Wind & Fire"
TITLE "Open Our Eyes"
FILE "01 - Mighty Mighty.wav" WAVE
TRACK 01 AUDIO
TITLE "Mighty Mighty"
PERFORMER "Earth, Wind & Fire"
INDEX 01 00:00:00
FILE "02 - Devotion.wav" WAVE
TRACK 02 AUDIO
TITLE "Devotion"
PERFORMER "Earth, Wind & Fire"
INDEX 01 00:00:00
FILE "03 - Fair But So Uncool.wav" WAVE
TRACK 03 AUDIO
TITLE "Fair But So Uncool"
PERFORMER "Earth, Wind & Fire"
INDEX 01 00:00:00
FILE "04 - Feelin' Blue.wav" WAVE
TRACK 04 AUDIO
TITLE "Feelin' Blue"
PERFORMER "Earth, Wind & Fire"
INDEX 01 00:00:00
FILE "05 - Kalimba Story.wav" WAVE
TRACK 05 AUDIO
TITLE "Kalimba Story"
PERFORMER "Earth, Wind & Fire"
INDEX 01 00:00:00
FILE "06 - Drum Song.wav" WAVE
TRACK 06 AUDIO
TITLE "Drum Song"
PERFORMER "Earth, Wind & Fire"
INDEX 01 00:00:00
FILE "07 - Tee Nine Chee Bit.wav" WAVE
TRACK 07 AUDIO
TITLE "Tee Nine Chee Bit"
PERFORMER "Earth, Wind & Fire"
INDEX 01 00:00:00
FILE "08 - Spasmodic Movements.wav" WAVE
TRACK 08 AUDIO
TITLE "Spasmodic Movements"
PERFORMER "Earth, Wind & Fire"
INDEX 01 00:00:00
FILE "09 - Rabbit Seed.wav" WAVE
TRACK 09 AUDIO
TITLE "Rabbit Seed"
PERFORMER "Earth, Wind & Fire"
INDEX 01 00:00:00
FILE "10 - Caribou.wav" WAVE
TRACK 10 AUDIO
TITLE "Caribou"
PERFORMER "Earth, Wind & Fire"
INDEX 01 00:00:00
FILE "11 - Open Our Eyes.wav" WAVE
TRACK 11 AUDIO
TITLE "Open Our Eyes"
PERFORMER "Earth, Wind & Fire"
INDEX 01 00:00:00
 
Отчет CUETools
[CUETools log; Date: 20.07.2017 14:14:05; Version: 2.1.5]
[CTDB TOCID: Hhdka5VtKJpXwtdQhl4vrpdjJRM-] found.
Track | CTDB Status
1 | (14/14) Accurately ripped
2 | (14/14) Accurately ripped
3 | (14/14) Accurately ripped
4 | (14/14) Accurately ripped
5 | (14/14) Accurately ripped
6 | (14/14) Accurately ripped
7 | (14/14) Accurately ripped
8 | (14/14) Accurately ripped
9 | (14/14) Accurately ripped
10 | (14/14) Accurately ripped
11 | (14/14) Accurately ripped
[AccurateRip ID: 00115880-00947158-8909710b] found.
Track [ CRC | V2 ] Status
01 [baa07c30|addbf559] (00+21/21) Accurately ripped
02 [e56f4d16|2972649e] (00+21/21) Accurately ripped
03 [498c0a6c|6f19ef90] (00+21/21) Accurately ripped
04 [e2c4bba2|33294fa5] (00+21/21) Accurately ripped
05 [421412f1|50dd0250] (00+21/21) Accurately ripped
06 [33c11b19|b784249b] (00+21/21) Accurately ripped
07 [46fca77d|60644906] (00+21/21) Accurately ripped
08 [9afdb30a|18283b4f] (00+21/21) Accurately ripped
09 [9abb5d34|136ab941] (00+21/21) Accurately ripped
10 [ceb629e7|0b4dc039] (00+21/21) Accurately ripped
11 [9d803aa2|db7f0886] (00+21/21) Accurately ripped
Track Peak [ CRC32 ] [W/O NULL] [ LOG ]
-- 98,3 [EFC6AD2B] [2E66BDCF]
01 98,3 [A9497FE9] [A6BEC7BC] CRC32
02 83,3 [5E8A77A9] [8D11506D] CRC32
03 93,8 [738B5DE4] [5136BEA0] CRC32
04 92,3 [2F89619B] [8601F8F1] CRC32
05 82,4 [842E10AA] [2A07ED0D] CRC32
06 87,9 [4FA5347A] [62F4F46B] CRC32
07 96,7 [18880644] [BBC15D6C] CRC32
08 80,9 [97731EED] [D9EF1827] CRC32
09 37,6 [EAA61D91] [6C6CE21D] CRC32
10 81,1 [F08FC982] [32298C10] CRC32
11 88,9 [D7263623] [00DDF1B4] CRC32
 
AllMusic Review by Alex Henderson
Finally, after almost half a decade of serious dues-paying, Earth, Wind & Fire took off commercially with its fifth album, Open Our Eyes. EWF had been delivering great albums since 1971, but it wasn't until 1974 that the public proved genuinely receptive to Maurice White's mystical and unorthodox take on soul and funk. No longer would EWF enjoy only a small cult following. Thanks to treasures like "Kalimba Song," the gritty funk smoker "Mighty Mighty," and the unforgettable "Devotion," Open Our Eyes became EWF's first gold album and went to the top of the R&B charts. It's also interesting to note that with this album, singer Jessica Cleaves was gone, resulting in the first time EWF had an all-male lineup.
Приватный:
Нет (DHT включён)
Размер:
240.39 Мб (252,067,926 байт) » файлов: 26
Участники:
0 раздают, 0 качают (0 участников всего)
Внешние участники:
5 раздают, 2 качают (7 участников всего) [ Обновить ]
Есть вопросы - пишите личное сообщение пользователю M0p94ok.
14:13
42
Нет комментариев. Ваш будет первым!