Поиск

(Funk, Soul) [CD] Bill Withers - Live at Carnegie Hall - 1973 (2014 MFSL), FLAC (tracks+.cue), lossless

(Funk, Soul) [CD] Bill Withers - Live at Carnegie Hall - 1973 (2014 MFSL), FLAC (tracks+.cue), lossless
Треклист:
Bill Withers - Live at Carnegie Hall
Жанр: Funk, Soul
Носитель: CD
Страна-производитель диска (релиза): США
Год издания: 1973 (2014)
Издатель (лейбл): Mobile Fidelity Sound Lab
Номер по каталогу: UDSACD 2156
Аудиокодек: FLAC (*.flac)
Тип рипа: tracks+.cue
Битрейт аудио: lossless
Продолжительность: 79:31
Источник (релизер): mclarenspy
Наличие сканов в содержимом раздачи: да
Треклист:
01. Use Me (8:49)
02. Friend of Mine (4:29)
03. Ain't No Sunshine (3:01)
04. Grandma's Hands (5:24)
05. World Keeps Going Around (5:19)
06. Let Me in Your Life (4:26)
07. Better Off Dead (3:42)
08. For My Friend (3:08)
09. I Can't Write Left Handed (6:53)
10. Lean on Me (5:47)
11. Lonely Town, Lonely Street (4:00)
12. Hope She'll Be Happier (4:33)
13. Let Use Love (6:16)
14. Harlem/Cold Baloney (13:44)
 
Лог создания рипа
Exact Audio Copy V1.3 from 2. September 2016
EAC extraction logfile from 17. July 2017, 0:51
Bill Withers / Live At Carnegie Hall (2014 MFSL)
Used drive : PLEXTOR CD-R PREMIUM Adapter: 1 ID: 1
Read mode : Secure
Utilize accurate stream : Yes
Defeat audio cache : Yes
Make use of C2 pointers : No
Read offset correction : 30
Overread into Lead-In and Lead-Out : No
Fill up missing offset samples with silence : Yes
Delete leading and trailing silent blocks : No
Null samples used in CRC calculations : Yes
Used interface : Native Win32 interface for Win NT & 2000
Gap handling : Appended to previous track
Used output format : User Defined Encoder
Selected bitrate : 768 kBit/s
Quality : High
Add ID3 tag : No
Command line compressor : C:\Program Files (x86)\Exact Audio Copy\FLAC\FLAC.EXE
Additional command line options : -6 -e -p -V -T "ARTIST=%artist%" -T "TITLE=%title%" -T "ALBUM=%albumtitle%" -T "DATE=%year%" -T "TRACKNUMBER=%tracknr%" -T "GENRE=%genre%" -T "PERFORMER=%albuminterpret%" -T "COMPOSER=%composer%" %haslyrics%--tag-from-file=LYRICS="%lyricsfile%"%haslyrics% -T "ALBUMARTIST=%albumartist%" -T "DISCNUMBER=%cdnumber%" -T "TOTALDISCS=%totalcds%" -T "TOTALTRACKS=%numtracks%" -T "COMMENT=%comment%" %source% -o %dest%
TOC of the extracted CD
Track | Start | Length | Start sector | End sector
---------------------------------------------------------
1 | 0:00.00 | 8:48.59 | 0 | 39658
2 | 8:48.59 | 4:29.34 | 39659 | 59867
3 | 13:18.18 | 3:00.54 | 59868 | 73421
4 | 16:18.72 | 5:23.48 | 73422 | 97694
5 | 21:42.45 | 5:18.40 | 97695 | 121584
6 | 27:01.10 | 4:25.39 | 121585 | 141498
7 | 31:26.49 | 3:41.73 | 141499 | 158146
8 | 35:08.47 | 3:07.64 | 158147 | 172235
9 | 38:16.36 | 6:53.21 | 172236 | 203231
10 | 45:09.57 | 5:47.05 | 203232 | 229261
11 | 50:56.62 | 3:59.46 | 229262 | 247232
12 | 54:56.33 | 4:32.57 | 247233 | 267689
13 | 59:29.15 | 6:16.18 | 267690 | 295907
14 | 65:45.33 | 13:43.38 | 295908 | 357670
Track 1
Filename C:\tmp\00_RIPS\01 - Use Me.wav
Pre-gap length 0:00:02.00
Peak level 99.2 %
Extraction speed 3.6 X
Track quality 100.0 %
Test CRC 46DA1F5C
Copy CRC 46DA1F5C
Accurately ripped (confidence 7) [E4FB32D2] (AR v2)
Copy OK
Track 2
Filename C:\tmp\00_RIPS\02 - Friend Of Mine.wav
Peak level 95.0 %
Extraction speed 3.6 X
Track quality 100.0 %
Test CRC 12782FAA
Copy CRC 12782FAA
Accurately ripped (confidence 8) [648AD645] (AR v2)
Copy OK
Track 3
Filename C:\tmp\00_RIPS\03 - Ain't No Sunshine.wav
Peak level 96.3 %
Extraction speed 3.5 X
Track quality 100.0 %
Test CRC 201ACB00
Copy CRC 201ACB00
Accurately ripped (confidence 8) [A3C5BE33] (AR v2)
Copy OK
Track 4
Filename C:\tmp\00_RIPS\04 - Grandma's Hands.wav
Peak level 80.7 %
Extraction speed 3.6 X
Track quality 100.0 %
Test CRC FD9E103C
Copy CRC FD9E103C
Accurately ripped (confidence 8) [3DDC1195] (AR v2)
Copy OK
Track 5
Filename C:\tmp\00_RIPS\05 - World Keeps Going Around.wav
Pre-gap length 0:00:02.72
Peak level 96.7 %
Extraction speed 3.6 X
Track quality 100.0 %
Test CRC DC29C78B
Copy CRC DC29C78B
Accurately ripped (confidence 8) [58EC6D5C] (AR v2)
Copy OK
Track 6
Filename C:\tmp\00_RIPS\06 - Let Me In Your Life.wav
Peak level 96.2 %
Extraction speed 3.6 X
Track quality 100.0 %
Test CRC 9ECAEE91
Copy CRC 9ECAEE91
Accurately ripped (confidence 8) [5E020229] (AR v2)
Copy OK
Track 7
Filename C:\tmp\00_RIPS\07 - Better Of Dead.wav
Peak level 97.4 %
Extraction speed 3.6 X
Track quality 100.0 %
Test CRC 718481C2
Copy CRC 718481C2
Accurately ripped (confidence 8) [8774374E] (AR v2)
Copy OK
Track 8
Filename C:\tmp\00_RIPS\08 - For My Friend.wav
Peak level 95.3 %
Extraction speed 3.6 X
Track quality 100.0 %
Test CRC 626BCD9A
Copy CRC 626BCD9A
Accurately ripped (confidence 8) [E1AEA793] (AR v2)
Copy OK
Track 9
Filename C:\tmp\00_RIPS\09 - I Can't Write Left Handed.wav
Pre-gap length 0:00:02.80
Peak level 96.8 %
Extraction speed 3.7 X
Track quality 100.0 %
Test CRC 3E1E8620
Copy CRC 3E1E8620
Accurately ripped (confidence 8) [716783C4] (AR v2)
Copy OK
Track 10
Filename C:\tmp\00_RIPS\10 - Lean On Me.wav
Peak level 97.9 %
Extraction speed 3.7 X
Track quality 100.0 %
Test CRC 3C6FC7CF
Copy CRC 3C6FC7CF
Accurately ripped (confidence 8) [0B33D1B6] (AR v2)
Copy OK
Track 11
Filename C:\tmp\00_RIPS\11 - Lonely Town, Lonely Street.wav
Peak level 97.8 %
Extraction speed 3.6 X
Track quality 100.0 %
Test CRC 42734D7F
Copy CRC 42734D7F
Accurately ripped (confidence 8) [9026B6AE] (AR v2)
Copy OK
Track 12
Filename C:\tmp\00_RIPS\12 - Hope She's Be Happier.wav
Peak level 62.3 %
Extraction speed 3.6 X
Track quality 100.0 %
Test CRC 6ABA0ACE
Copy CRC 6ABA0ACE
Accurately ripped (confidence 8) [0D4E1FA5] (AR v2)
Copy OK
Track 13
Filename C:\tmp\00_RIPS\13 - Let Use Love.wav
Pre-gap length 0:00:02.81
Peak level 96.8 %
Extraction speed 3.7 X
Track quality 100.0 %
Test CRC 43F0D194
Copy CRC 43F0D194
Accurately ripped (confidence 8) [16181923] (AR v2)
Copy OK
Track 14
Filename C:\tmp\00_RIPS\14 - Harlem Cold Baloney.wav
Pre-gap length 0:00:03.57
Peak level 95.1 %
Extraction speed 3.5 X
Track quality 100.0 %
Test CRC B71C0478
Copy CRC B71C0478
Accurately ripped (confidence 7) [87BF17E9] (AR v2)
Copy OK
All tracks accurately ripped
No errors occurred
End of status report
---- CUETools DB Plugin V2.1.6
[CTDB TOCID: dgI2rxuy60Y1FccQfw78WLQ_utI-] found
Submit result: dgI2rxuy60Y1FccQfw78WLQ_utI- has been confirmed
Track | CTDB Status
1 | (9/9) Accurately ripped
2 | (9/9) Accurately ripped
3 | (9/9) Accurately ripped
4 | (9/9) Accurately ripped
5 | (9/9) Accurately ripped
6 | (9/9) Accurately ripped
7 | (9/9) Accurately ripped
8 | (9/9) Accurately ripped
9 | (9/9) Accurately ripped
10 | (9/9) Accurately ripped
11 | (9/9) Accurately ripped
12 | (9/9) Accurately ripped
13 | (9/9) Accurately ripped
14 | (9/9) Accurately ripped
==== Log checksum A90388000AA0BD90B7937BAD2F1913A17E390B413342F406D3D91005FBDE8CFE ====
 
Содержание индексной карты (.CUE)
REM GENRE Jazz
REM DATE 1973
REM DISCID C112A00E
REM COMMENT "ExactAudioCopy v1.3"
PERFORMER "Bill Withers"
TITLE "Live at Carnegie Hall"
FILE "01 - Use Me.wav" WAVE
TRACK 01 AUDIO
TITLE "Use Me"
PERFORMER "Bill Withers"
INDEX 01 00:00:00
FILE "02 - Friend of Mine.wav" WAVE
TRACK 02 AUDIO
TITLE "Friend of Mine"
PERFORMER "Bill Withers"
INDEX 01 00:00:00
FILE "03 - Ain't No Sunshine.wav" WAVE
TRACK 03 AUDIO
TITLE "Ain't No Sunshine"
PERFORMER "Bill Withers"
INDEX 01 00:00:00
FILE "04 - Grandma's Hands.wav" WAVE
TRACK 04 AUDIO
TITLE "Grandma's Hands"
PERFORMER "Bill Withers"
INDEX 01 00:00:00
INDEX 02 02:47:06
TRACK 05 AUDIO
TITLE "World Keeps Going Around"
PERFORMER "Bill Withers"
INDEX 00 05:20:69
FILE "05 - World Keeps Going Around.wav" WAVE
INDEX 01 00:00:00
FILE "06 - Let Me in Your Life.wav" WAVE
TRACK 06 AUDIO
TITLE "Let Me in Your Life"
PERFORMER "Bill Withers"
INDEX 01 00:00:00
INDEX 02 00:57:09
FILE "07 - Better Off Dead.wav" WAVE
TRACK 07 AUDIO
TITLE "Better Off Dead"
PERFORMER "Bill Withers"
INDEX 01 00:00:00
FILE "08 - For My Friend.wav" WAVE
TRACK 08 AUDIO
TITLE "For My Friend"
PERFORMER "Bill Withers"
INDEX 01 00:00:00
TRACK 09 AUDIO
TITLE "I Can't Write Left Handed"
PERFORMER "Bill Withers"
INDEX 00 03:05:04
FILE "09 - I Can't Write Left Handed.wav" WAVE
INDEX 01 00:00:00
FILE "10 - Lean on Me.wav" WAVE
TRACK 10 AUDIO
TITLE "Lean on Me"
PERFORMER "Bill Withers"
INDEX 01 00:00:00
FILE "11 - Lonely Town, Lonely Street.wav" WAVE
TRACK 11 AUDIO
TITLE "Lonely Town, Lonely Street"
PERFORMER "Bill Withers"
INDEX 01 00:00:00
FILE "12 - Hope She'll Be Happier.wav" WAVE
TRACK 12 AUDIO
TITLE "Hope She'll Be Happier"
PERFORMER "Bill Withers"
INDEX 01 00:00:00
TRACK 13 AUDIO
TITLE "Let Use Love"
PERFORMER "Bill Withers"
INDEX 00 04:29:71
FILE "13 - Let Use Love.wav" WAVE
INDEX 01 00:00:00
INDEX 02 00:52:68
TRACK 14 AUDIO
TITLE "Harlem/Cold Baloney"
PERFORMER "Bill Withers"
INDEX 00 06:12:50
FILE "14 - Harlem,Cold Baloney.wav" WAVE
INDEX 01 00:00:00
 
Отчет CUETools
[CUETools log; Date: 21.07.2017 0:36:07; Version: 2.1.5]
[CTDB TOCID: dgI2rxuy60Y1FccQfw78WLQ_utI-] found.
Track | CTDB Status
1 | (10/10) Accurately ripped
2 | (10/10) Accurately ripped
3 | (10/10) Accurately ripped
4 | (10/10) Accurately ripped
5 | (10/10) Accurately ripped
6 | (10/10) Accurately ripped
7 | (10/10) Accurately ripped
8 | (10/10) Accurately ripped
9 | (10/10) Accurately ripped
10 | (10/10) Accurately ripped
11 | (10/10) Accurately ripped
12 | (10/10) Accurately ripped
13 | (10/10) Accurately ripped
14 | (10/10) Accurately ripped
[AccurateRip ID: 00259d53-018e070e-c112a00e] found.
Track [ CRC | V2 ] Status
01 [59ef6b29|e4fb32d2] (0+7/7) Accurately ripped
02 [cb2ea9bd|648ad645] (0+8/8) Accurately ripped
03 [811c0db7|a3c5be33] (0+8/8) Accurately ripped
04 [67815b0d|3ddc1195] (0+8/8) Accurately ripped
05 [131dc6fd|58ec6d5c] (0+8/8) Accurately ripped
06 [df294832|5e020229] (0+8/8) Accurately ripped
07 [f6a4231e|8774374e] (0+8/8) Accurately ripped
08 [bb8b1364|e1aea793] (0+8/8) Accurately ripped
09 [690ada38|716783c4] (0+8/8) Accurately ripped
10 [8dc2d810|0b33d1b6] (0+8/8) Accurately ripped
11 [e3d32954|9026b6ae] (0+8/8) Accurately ripped
12 [f86ac8ca|0d4e1fa5] (0+8/8) Accurately ripped
13 [833220ba|16181923] (0+8/8) Accurately ripped
14 [6403083a|87bf17e9] (0+7/7) Accurately ripped
Track Peak [ CRC32 ] [W/O NULL] [ LOG ]
-- 99,2 [1010BF6B] [67233929]
01 99,2 [46DA1F5C] [9FC7F2F3] CRC32
02 95,0 [12782FAA] [9C84B391] CRC32
03 96,3 [201ACB00] [2C9205FE] CRC32
04 80,7 [FD9E103C] [69DBB589] CRC32
05 96,7 [DC29C78B] [FDAD5173] CRC32
06 96,2 [9ECAEE91] [3FBE98DA] CRC32
07 97,4 [718481C2] [2F6BF896] CRC32
08 95,3 [626BCD9A] [06E7D23A] CRC32
09 96,8 [3E1E8620] [76519059] CRC32
10 97,9 [3C6FC7CF] [39316084] CRC32
11 97,8 [42734D7F] [3624D306] CRC32
12 62,3 [6ABA0ACE] [F8EF03E6] CRC32
13 96,8 [43F0D194] [E2A2DC0F] CRC32
14 95,1 [B71C0478] [A8F528C2] CRC32
 
AllMusic Review by Steven McDonald
A wonderful live album that capitalizes on Withers' trademark melancholy soul sound while expanding the music to fit the room granted by a live show. Lovely versions of "Grandma's Hands" and "Lean on Me" are balanced by heartfelt downbeat numbers like "Better Off Dead" and "I Can't Write Left-Handed," the latter being an anti-war song with a chilling message. The set finishes off with the lengthy "Harlem/Cold Baloney," with lots of audience-pleased call-and-response going on. One of the best live releases from the '70s.
Приватный:
Нет (DHT включён)
Размер:
469.11 Мб (491,902,660 байт) » файлов: 30
Участники:
0 раздают, 0 качают (0 участников всего)
Внешние участники:
16 раздают, 5 качают (21 участников всего) [ Обновить ]
Есть вопросы - пишите личное сообщение пользователю M0p94ok.
14:14
54
Нет комментариев. Ваш будет первым!