Поиск

(Funk, Soul) [CD] Bill Withers - Bill Withers' Greatest Hits - 1981 (2016 MFSL), FLAC (tracks+.cue), lossless

(Funk, Soul) [CD] Bill Withers - Bill Withers' Greatest Hits - 1981 (2016 MFSL), FLAC (tracks+.cue), lossless
Треклист:
Bill Withers - Bill Withers' Greatest Hits
Жанр: Funk, Soul
Носитель: CD
Страна-производитель диска (релиза): США
Год издания: 1981 (2016)
Издатель (лейбл): Mobile Fidelity Sound Lab
Номер по каталогу: UDSACD 2155
Аудиокодек: FLAC (*.flac)
Тип рипа: tracks+.cue
Битрейт аудио: lossless
Продолжительность: 36:51
Источник (релизер): mclarenspy
Наличие сканов в содержимом раздачи: да
Треклист:
01. Just the Two of Us (4:00)
02. Use Me (3:52)
03. Ain't No Sunshine (2:06)
04. Lovely Day (4:17)
05. I Want to Spend the Night (3:44)
06. Soul Shadow (3:36)
07. Lean on Me (4:22)
08. Grandma's Hands (2:03)
09. Hello Like Before (5:35)
10. Who Is He What Is He to You (3:16)
 
Лог создания рипа
Exact Audio Copy V1.3 from 2. September 2016
EAC extraction logfile from 17. July 2017, 0:03
Bill Withers / Bill Withers' Greatest Hits (2016 MFSL)
Used drive : PLEXTOR CD-R PREMIUM Adapter: 1 ID: 1
Read mode : Secure
Utilize accurate stream : Yes
Defeat audio cache : Yes
Make use of C2 pointers : No
Read offset correction : 30
Overread into Lead-In and Lead-Out : No
Fill up missing offset samples with silence : Yes
Delete leading and trailing silent blocks : No
Null samples used in CRC calculations : Yes
Used interface : Native Win32 interface for Win NT & 2000
Gap handling : Appended to previous track
Used output format : User Defined Encoder
Selected bitrate : 768 kBit/s
Quality : High
Add ID3 tag : No
Command line compressor : C:\Program Files (x86)\Exact Audio Copy\FLAC\FLAC.EXE
Additional command line options : -6 -e -p -V -T "ARTIST=%artist%" -T "TITLE=%title%" -T "ALBUM=%albumtitle%" -T "DATE=%year%" -T "TRACKNUMBER=%tracknr%" -T "GENRE=%genre%" -T "PERFORMER=%albuminterpret%" -T "COMPOSER=%composer%" %haslyrics%--tag-from-file=LYRICS="%lyricsfile%"%haslyrics% -T "ALBUMARTIST=%albumartist%" -T "DISCNUMBER=%cdnumber%" -T "TOTALDISCS=%totalcds%" -T "TOTALTRACKS=%numtracks%" -T "COMMENT=%comment%" %source% -o %dest%
TOC of the extracted CD
Track | Start | Length | Start sector | End sector
---------------------------------------------------------
1 | 0:00.00 | 4:00.24 | 0 | 18023
2 | 4:00.24 | 3:52.23 | 18024 | 35446
3 | 7:52.47 | 2:06.30 | 35447 | 44926
4 | 9:59.02 | 4:16.72 | 44927 | 64198
5 | 14:15.74 | 3:44.26 | 64199 | 81024
6 | 18:00.25 | 3:36.25 | 81025 | 97249
7 | 21:36.50 | 4:22.06 | 97250 | 116905
8 | 25:58.56 | 2:02.40 | 116906 | 126095
9 | 28:01.21 | 5:34.42 | 126096 | 151187
10 | 33:35.63 | 3:15.50 | 151188 | 165862
Track 1
Filename C:\tmp\00_RIPS\01 - Just the Two of Us.wav
Pre-gap length 0:00:02.00
Peak level 96.9 %
Extraction speed 7.6 X
Track quality 99.9 %
Test CRC 76EAB39D
Copy CRC 76EAB39D
Accurately ripped (confidence 7) [342B3529] (AR v2)
Copy OK
Track 2
Filename C:\tmp\00_RIPS\02 - Use Me.wav
Pre-gap length 0:00:02.77
Peak level 84.1 %
Extraction speed 9.5 X
Track quality 100.0 %
Test CRC 42D03CE9
Copy CRC 42D03CE9
Accurately ripped (confidence 7) [0185AC35] (AR v2)
Copy OK
Track 3
Filename C:\tmp\00_RIPS\03 - Ain't No Sunshine.wav
Pre-gap length 0:00:02.77
Peak level 91.3 %
Extraction speed 9.6 X
Track quality 100.0 %
Test CRC 9A35BF28
Copy CRC 9A35BF28
Accurately ripped (confidence 7) [3848A7C6] (AR v2)
Copy OK
Track 4
Filename C:\tmp\00_RIPS\04 - Lovely Day.wav
Pre-gap length 0:00:02.77
Peak level 95.8 %
Extraction speed 9.4 X
Track quality 99.9 %
Test CRC 66D19B15
Copy CRC 66D19B15
Accurately ripped (confidence 7) [495B0C1F] (AR v2)
Copy OK
Track 5
Filename C:\tmp\00_RIPS\05 - I Want to Spend the Night.wav
Peak level 95.9 %
Extraction speed 11.3 X
Track quality 100.0 %
Test CRC DDECF1E8
Copy CRC DDECF1E8
Accurately ripped (confidence 7) [D92367FD] (AR v2)
Copy OK
Track 6
Filename C:\tmp\00_RIPS\06 - Soul Shadow.wav
Pre-gap length 0:00:00.70
Peak level 91.3 %
Extraction speed 11.8 X
Track quality 100.0 %
Test CRC FDC0AA56
Copy CRC FDC0AA56
Accurately ripped (confidence 7) [A2FD6CCF] (AR v2)
Copy OK
Track 7
Filename C:\tmp\00_RIPS\07 - Lean On Me.wav
Pre-gap length 0:00:02.77
Peak level 85.7 %
Extraction speed 12.6 X
Track quality 100.0 %
Test CRC 77041346
Copy CRC 77041346
Accurately ripped (confidence 7) [DE18A45F] (AR v2)
Copy OK
Track 8
Filename C:\tmp\00_RIPS\08 - Grandma's Hands.wav
Pre-gap length 0:00:02.77
Peak level 96.6 %
Extraction speed 12.0 X
Track quality 100.0 %
Test CRC 2D7333A5
Copy CRC 2D7333A5
Accurately ripped (confidence 7) [DE180A04] (AR v2)
Copy OK
Track 9
Filename C:\tmp\00_RIPS\09 - Hello Like Before.wav
Pre-gap length 0:00:02.77
Peak level 97.2 %
Extraction speed 13.7 X
Track quality 100.0 %
Test CRC 473B5513
Copy CRC 473B5513
Accurately ripped (confidence 7) [BFDADE8F] (AR v2)
Copy OK
Track 10
Filename C:\tmp\00_RIPS\10 - Who Is He What Is He to You.wav
Pre-gap length 0:00:02.77
Peak level 96.7 %
Extraction speed 13.8 X
Track quality 100.0 %
Test CRC 75EC989E
Copy CRC 75EC989E
Accurately ripped (confidence 7) [AE701810] (AR v2)
Copy OK
All tracks accurately ripped
No errors occurred
End of status report
---- CUETools DB Plugin V2.1.6
[CTDB TOCID: UG2kbssaovdeJQHWliGrJsnAHJc-] found
Submit result: UG2kbssaovdeJQHWliGrJsnAHJc- has been confirmed
Track | CTDB Status
1 | (16/16) Accurately ripped
2 | (16/16) Accurately ripped
3 | (16/16) Accurately ripped
4 | (16/16) Accurately ripped
5 | (16/16) Accurately ripped
6 | (16/16) Accurately ripped
7 | (16/16) Accurately ripped
8 | (16/16) Accurately ripped
9 | (16/16) Accurately ripped
10 | (16/16) Accurately ripped
==== Log checksum 01BBAD33E60641D288BE7583F99E60540396015EACAFB9758E961FC5CD56D381 ====
 
Содержание индексной карты (.CUE)
REM GENRE Jazz
REM DATE 1981
REM DISCID 7B08A30A
REM COMMENT "ExactAudioCopy v1.3"
PERFORMER "Bill Withers"
TITLE "Bill Withers' Greatest Hits"
FILE "01 - Just the Two of Us.wav" WAVE
TRACK 01 AUDIO
TITLE "Just the Two of Us"
PERFORMER "Bill Withers"
INDEX 01 00:00:00
TRACK 02 AUDIO
TITLE "Use Me"
PERFORMER "Bill Withers"
INDEX 00 03:57:41
FILE "02 - Use Me.wav" WAVE
INDEX 01 00:00:00
TRACK 03 AUDIO
TITLE "Ain't No Sunshine"
PERFORMER "Bill Withers"
INDEX 00 03:49:40
FILE "03 - Ain't No Sunshine.wav" WAVE
INDEX 01 00:00:00
TRACK 04 AUDIO
TITLE "Lovely Day"
PERFORMER "Bill Withers"
INDEX 00 02:03:47
FILE "04 - Lovely Day.wav" WAVE
INDEX 01 00:00:00
FILE "05 - I Want to Spend the Night.wav" WAVE
TRACK 05 AUDIO
TITLE "I Want to Spend the Night"
PERFORMER "Bill Withers"
INDEX 01 00:00:00
TRACK 06 AUDIO
TITLE "Soul Shadow"
PERFORMER "Bill Withers"
INDEX 00 03:43:48
FILE "06 - Soul Shadow.wav" WAVE
INDEX 01 00:00:00
TRACK 07 AUDIO
TITLE "Lean on Me"
PERFORMER "Bill Withers"
INDEX 00 03:33:42
FILE "07 - Lean on Me.wav" WAVE
INDEX 01 00:00:00
TRACK 08 AUDIO
TITLE "Grandma's Hands"
PERFORMER "Bill Withers"
INDEX 00 04:19:23
FILE "08 - Grandma's Hands.wav" WAVE
INDEX 01 00:00:00
TRACK 09 AUDIO
TITLE "Hello Like Before"
PERFORMER "Bill Withers"
INDEX 00 01:59:57
FILE "09 - Hello Like Before.wav" WAVE
INDEX 01 00:00:00
TRACK 10 AUDIO
TITLE "Who Is He What Is He to You"
PERFORMER "Bill Withers"
INDEX 00 05:31:59
FILE "10 - Who Is He What Is He to You.wav" WAVE
INDEX 01 00:00:00
 
Отчет CUETools
[CUETools log; Date: 21.07.2017 0:44:14; Version: 2.1.5]
[CTDB TOCID: UG2kbssaovdeJQHWliGrJsnAHJc-] found.
Track | CTDB Status
1 | (18/18) Accurately ripped
2 | (18/18) Accurately ripped
3 | (18/18) Accurately ripped
4 | (18/18) Accurately ripped
5 | (18/18) Accurately ripped
6 | (18/18) Accurately ripped
7 | (18/18) Accurately ripped
8 | (18/18) Accurately ripped
9 | (18/18) Accurately ripped
10 | (18/18) Accurately ripped
[AccurateRip ID: 000dbf3d-006e1d5e-7b08a30a] found.
Track [ CRC | V2 ] Status
01 [6d09b37b|342b3529] (0+7/7) Accurately ripped
02 [782e9ab2|0185ac35] (0+7/7) Accurately ripped
03 [90d8c6e5|3848a7c6] (0+7/7) Accurately ripped
04 [08e1f8b9|495b0c1f] (0+7/7) Accurately ripped
05 [085a1f4b|d92367fd] (0+7/7) Accurately ripped
06 [ab6ad5d9|a2fd6ccf] (0+7/7) Accurately ripped
07 [70266229|de18a45f] (0+7/7) Accurately ripped
08 [36bebdce|de180a04] (0+7/7) Accurately ripped
09 [e5bac79b|bfdade8f] (0+7/7) Accurately ripped
10 [b5e2e71e|ae701810] (0+7/7) Accurately ripped
Track Peak [ CRC32 ] [W/O NULL] [ LOG ]
-- 97,2 [2E197F44] [5AD37B4D]
01 96,9 [76EAB39D] [6ACC6879] CRC32
02 84,1 [42D03CE9] [74C69FD7] CRC32
03 91,3 [9A35BF28] [B783C040] CRC32
04 95,8 [66D19B15] [E1A1B195] CRC32
05 95,9 [DDECF1E8] [762886DC] CRC32
06 91,3 [FDC0AA56] [38CC96EA] CRC32
07 85,7 [77041346] [662FB65E] CRC32
08 96,6 [2D7333A5] [C01FCAAC] CRC32
09 97,2 [473B5513] [592F74FA] CRC32
10 96,7 [75EC989E] [D448ABF6] CRC32
 
AllMusic Review by Stephen Thomas Erlewine
At only ten tracks, Greatest Hits is a little brief and doesn't contain much of his earliest material, but it remains a first-rate compilation of Bill Withers' prime hits, featuring "Use Me," "Ain't No Sunshine," "Lean on Me," "Who Is He (And What Is He to You)," and "Just the Two of Us." The latter-day Legacy compilation is a bit more thorough, but this remains a good basic overview.
Приватный:
Нет (DHT включён)
Размер:
205.31 Мб (215,284,537 байт) » файлов: 20
Участники:
0 раздают, 0 качают (0 участников всего)
Внешние участники:
28 раздают, 9 качают (37 участников всего) [ Обновить ]
Есть вопросы - пишите личное сообщение пользователю M0p94ok.
14:15
60
Нет комментариев. Ваш будет первым!