Поиск

(Soul) [CD] Elisabeth Withers - It Can Happen To Anyone - 2007, FLAC (tracks+.cue), lossless

(Soul) [CD] Elisabeth Withers - It Can Happen To Anyone - 2007, FLAC (tracks+.cue), lossless
Треклист:
Elisabeth Withers - It Can Happen To Anyone Жанр: Soul
Носитель: CD
Год издания: 2007
Издатель (лейбл): Blue Note
Номер по каталогу: 0946 3 68171 2
Аудиокодек: FLAC (*.flac)
Тип рипа: tracks+.cue
Битрейт аудио: lossless
Продолжительность: 40:04
Источник (релизер): JET 1
Наличие сканов в содержимом раздачи: да
Треклист:
01. Simple Things (3:53)
02. Heartstrings (4:33)
03. Listen (3:33)
04. It Can Happen (3:34)
05. Get Your Shoes On (2:55)
06. Be with You (3:38)
07. World Ain't Ready (3:40)
08. Somebody (3:36)
09. Wind Beneath My Wings (4:34)
10. Sweat (3:01)
11. Next to You (3:08)
Personnel:
Elisabeth Withers - vocals, background vocals
John James, Karen Bernod, Keith Fluitt, Jennie Douglas McRae - background vocals
Sherrod Barnes - guitar, electric guitar
Damon Mendes - drums
Dave Jones - bass
Emperor - cello
Little Emo - violin, viola
Rodman Del Castillo - electric guitar
Toby Gad - acoustic guitar, electric guitar, piano, electric bass, bass guitar, programming
 
 
Об альбоме (сборнике)
It Can Happen To Anyone is the debut studio album by American Neo Soul and R&B singer-songwriter Elisabeth Withers, released by Blue Note Records on January 30, 2007.
 
Review by Thom Jurek (AMG)
Elisabeth Withers may not be a household name yet, but there's a great chance she will be. It Can Happen to Anyone is her Blue Note debut (and reveals just how much the label's focus has shifted away from jazz since the runaway success of Norah Jones). Withers won a Tony Award for her role as Shugg Avery in the Oprah Winfrey Broadway production of the stage adaptation of Alice Walker's classic American novel The Color Purple. Apparently, Bruce Lundvall, the CEO of Blue Note, quite unexpectedly caught her singing act in a nightclub and signed her on the spot. Hopefully, Blue Note will know how to promote an artist as talented as Withers. She's more than a singer; she is also a songwriter, and she either wrote or co-wrote eight of the 11 cuts here. Vocally the only person in her league is Anita Baker. Like Baker, Withers has a big throaty delivery and knows how to walk the knife edge of sweet, bawdy, seductive, and spiritual. The differences between the two are pronounced as well: Withers sings everything from elegant pop-soul to urban to the new uptown pop. There's a double dose near the beginning of the record that offers proof. On "Heartstrings," an urban soul ballad with clever lyrics and beautifully placed strings by producer Toby Gad, the genuine heart and authentic warmth make it soar over the current pap that passes for soul in the marketplace. "Listen" is a midtempo soul tune with teeth and juice. The acoustic guitars, funky bassline, and Withers' on-a-dime delivery make this track infectious. Her in-the-pocket refrain is downright inspirational. Likewise, "Be with You" is one of the sexiest tunes to come down the pike in any genre. There are no unnecessary vocal histrionics from Withers — her natural delivery contains within it silk and grain, slither and swagger. It Can Happen to Anyone is as impressive a debut as listeners are going to get from anyone. If there is any justice, this disc will explode across the board. The production and song choices are alterna-hip enough to resonate with audiences who have never really been exposed to the new urban and uptown soul genres — Jones' crowd will dig this deep. It's slick and lyrically savvy enough to seduce those who think that Ciara and Erykah Badu are still top of the heap, and sophisticated enough to grab those adult contemporary listeners seeking a return to the classic sound of great female vocalists. Get it.

 
Лог создания рипа
EAC extraction logfile from 28. May 2007, 12:12 for CD
Elisabeth Withers / It Can Happen To Anyone
Used drive : TSSTcorpCD/DVDW SH-S182M Adapter: 2 ID: 0
Read mode : Secure with NO C2, accurate stream, disable cache
Read offset correction : 6
Overread into Lead-In and Lead-Out : No
Used output format : C:\EAC\flac-1.1.2-win\bin\flac.exe (User Defined Encoder)
320 kBit/s
Additional command line options : -V -8 -T "artist=%a" -T "title=%t" -T "album=%g" -T "date=%y" -T "tracknumber=%n" -T "genre=%m" %s
Other options :
Fill up missing offset samples with silence : Yes
Delete leading and trailing silent blocks : No
Installed external ASPI interface
Track 1
Filename E:\Elisabeth Withers - It Can Happen To Anyone (2007) [FLAC]\01 - Simple Things.wav
Pre-gap length 0:00:02.00
Peak level 99.9 %
Track quality 100.0 %
Test CRC DA89E2BB
Copy CRC DA89E2BB
Copy OK
Track 2
Filename E:\Elisabeth Withers - It Can Happen To Anyone (2007) [FLAC]\02 - Heartstrings.wav
Pre-gap length 0:00:01.92
Peak level 99.9 %
Track quality 99.9 %
Test CRC 6F182BEA
Copy CRC 6F182BEA
Copy OK
Track 3
Filename E:\Elisabeth Withers - It Can Happen To Anyone (2007) [FLAC]\03 - Listen.wav
Pre-gap length 0:00:01.26
Peak level 99.9 %
Track quality 100.0 %
Test CRC 5B11DC87
Copy CRC 5B11DC87
Copy OK
Track 4
Filename E:\Elisabeth Withers - It Can Happen To Anyone (2007) [FLAC]\04 - It Can Happen.wav
Pre-gap length 0:00:01.10
Peak level 95.1 %
Track quality 100.0 %
Test CRC 967D02CB
Copy CRC 967D02CB
Copy OK
Track 5
Filename E:\Elisabeth Withers - It Can Happen To Anyone (2007) [FLAC]\05 - Get Your Shoes On.wav
Pre-gap length 0:00:01.40
Peak level 99.0 %
Track quality 100.0 %
Test CRC AB7FFE14
Copy CRC AB7FFE14
Copy OK
Track 6
Filename E:\Elisabeth Withers - It Can Happen To Anyone (2007) [FLAC]\06 - Be with You.wav
Pre-gap length 0:00:00.93
Peak level 99.9 %
Track quality 100.0 %
Test CRC C6918D09
Copy CRC C6918D09
Copy OK
Track 7
Filename E:\Elisabeth Withers - It Can Happen To Anyone (2007) [FLAC]\07 - World Ain't Ready.wav
Pre-gap length 0:00:00.96
Peak level 99.9 %
Track quality 100.0 %
Test CRC D91E12D1
Copy CRC D91E12D1
Copy OK
Track 8
Filename E:\Elisabeth Withers - It Can Happen To Anyone (2007) [FLAC]\08 - Somebody.wav
Pre-gap length 0:00:01.82
Peak level 99.9 %
Track quality 99.9 %
Test CRC 08E5EABA
Copy CRC 08E5EABA
Copy OK
Track 9
Filename E:\Elisabeth Withers - It Can Happen To Anyone (2007) [FLAC]\09 - Wind Beneath My Wings.wav
Pre-gap length 0:00:01.13
Peak level 99.9 %
Track quality 99.9 %
Test CRC 9891CEE5
Copy CRC 9891CEE5
Copy OK
Track 10
Filename E:\Elisabeth Withers - It Can Happen To Anyone (2007) [FLAC]\10 - Sweat.wav
Pre-gap length 0:00:01.12
Peak level 99.9 %
Track quality 100.0 %
Test CRC 1EC132CB
Copy CRC 1EC132CB
Copy OK
Track 11
Filename E:\Elisabeth Withers - It Can Happen To Anyone (2007) [FLAC]\11 - Next to You.wav
Pre-gap length 0:00:00.22
Peak level 99.9 %
Track quality 100.0 %
Test CRC C52506D4
Copy CRC C52506D4
Copy OK
No errors occured
End of status report
 
Содержание индексной карты (.CUE)
REM GENRE Soul
REM DATE 2007
REM DISCID 7F09630B
REM COMMENT "ExactAudioCopy v0.95b3"
PERFORMER "Elisabeth Withers"
TITLE "It Can Happen To Anyone"
FILE "01 - Simple Things.wav" WAVE
TRACK 01 AUDIO
TITLE "Simple Things"
PERFORMER "Elisabeth Withers"
INDEX 01 00:00:00
TRACK 02 AUDIO
TITLE "Heartstrings"
PERFORMER "Elisabeth Withers"
INDEX 00 03:51:42
FILE "02 - Heartstrings.wav" WAVE
INDEX 01 00:00:00
TRACK 03 AUDIO
TITLE "Listen"
PERFORMER "Elisabeth Withers"
INDEX 00 04:31:48
FILE "03 - Listen.wav" WAVE
INDEX 01 00:00:00
TRACK 04 AUDIO
TITLE "It Can Happen"
PERFORMER "Elisabeth Withers"
INDEX 00 03:31:42
FILE "04 - It Can Happen.wav" WAVE
INDEX 01 00:00:00
TRACK 05 AUDIO
TITLE "Get Your Shoes On"
PERFORMER "Elisabeth Withers"
INDEX 00 03:32:53
FILE "05 - Get Your Shoes On.wav" WAVE
INDEX 01 00:00:00
TRACK 06 AUDIO
TITLE "Be with You"
PERFORMER "Elisabeth Withers"
INDEX 00 02:54:17
FILE "06 - Be with You.wav" WAVE
INDEX 01 00:00:00
TRACK 07 AUDIO
TITLE "World Ain't Ready"
PERFORMER "Elisabeth Withers"
INDEX 00 03:36:50
FILE "07 - World Ain't Ready.wav" WAVE
INDEX 01 00:00:00
TRACK 08 AUDIO
TITLE "Somebody"
PERFORMER "Elisabeth Withers"
INDEX 00 03:38:09
FILE "08 - Somebody.wav" WAVE
INDEX 01 00:00:00
TRACK 09 AUDIO
TITLE "Wind Beneath My Wings"
PERFORMER "Elisabeth Withers"
INDEX 00 03:34:29
FILE "09 - Wind Beneath My Wings.wav" WAVE
INDEX 01 00:00:00
TRACK 10 AUDIO
TITLE "Sweat"
PERFORMER "Elisabeth Withers"
INDEX 00 04:32:36
FILE "10 - Sweat.wav" WAVE
INDEX 01 00:00:00
TRACK 11 AUDIO
TITLE "Next to You"
PERFORMER "Elisabeth Withers"
INDEX 00 03:01:10
FILE "11 - Next to You.wav" WAVE
INDEX 01 00:00:00
Приватный:
Нет (DHT включён)
Размер:
300.20 Мб (314,783,181 байт) » файлов: 31
Участники:
0 раздают, 0 качают (0 участников всего)
Внешние участники:
2 раздают, 1 качают (3 участников всего) [ Обновить ]
No seeders - write personal message to user M0p94ok. Нет сидеров - пишите личное сообщение пользователю M0p94ok.
14:15
45
Нет комментариев. Ваш будет первым!