Поиск

(Funk, Soul) [CD] Earth, Wind & Fire - Head to the Sky - 1973 (2016 Audio Fidelity), FLAC (tracks+.cue), lossless

(Funk, Soul) [CD] Earth, Wind & Fire - Head to the Sky - 1973 (2016 Audio Fidelity), FLAC (tracks+.cue), lossless
Треклист:
Earth, Wind & Fire - Head to the Sky
Жанр: Funk, Soul
Носитель: CD
Страна-производитель диска (релиза): США
Год издания: 1973 (2016)
Издатель (лейбл): Audio Fidelity
Номер по каталогу: AFZ5 236
Аудиокодек: FLAC (*.flac)
Тип рипа: tracks+.cue
Битрейт аудио: lossless
Продолжительность: 37:02
Источник (релизер): mclarenspy
Наличие сканов в содержимом раздачи: да
Треклист:
01. Evil (5:02)
02. Keep Your Head to the Sky (5:11)
03. Build Your Nest (3:18)
04. The World's a Masquerade (4:59)
05. Clover (5:24)
06. Zanzibar (13:08)
 
Лог создания рипа
Exact Audio Copy V1.3 from 2. September 2016
EAC extraction logfile from 19. July 2017, 23:08
Earth, Wind & Fire / Head To The Sky (2016 AF)
Used drive : PLEXTOR CD-R PREMIUM Adapter: 1 ID: 1
Read mode : Secure
Utilize accurate stream : Yes
Defeat audio cache : Yes
Make use of C2 pointers : No
Read offset correction : 30
Overread into Lead-In and Lead-Out : No
Fill up missing offset samples with silence : Yes
Delete leading and trailing silent blocks : No
Null samples used in CRC calculations : Yes
Used interface : Native Win32 interface for Win NT & 2000
Gap handling : Appended to previous track
Used output format : User Defined Encoder
Selected bitrate : 768 kBit/s
Quality : High
Add ID3 tag : No
Command line compressor : C:\Program Files (x86)\Exact Audio Copy\FLAC\FLAC.EXE
Additional command line options : -6 -e -p -V -T "ARTIST=%artist%" -T "TITLE=%title%" -T "ALBUM=%albumtitle%" -T "DATE=%year%" -T "TRACKNUMBER=%tracknr%" -T "GENRE=%genre%" -T "PERFORMER=%albuminterpret%" -T "COMPOSER=%composer%" %haslyrics%--tag-from-file=LYRICS="%lyricsfile%"%haslyrics% -T "ALBUMARTIST=%albumartist%" -T "DISCNUMBER=%cdnumber%" -T "TOTALDISCS=%totalcds%" -T "TOTALTRACKS=%numtracks%" -T "COMMENT=%comment%" %source% -o %dest%
TOC of the extracted CD
Track | Start | Length | Start sector | End sector
---------------------------------------------------------
1 | 0:00.00 | 5:01.45 | 0 | 22619
2 | 5:01.45 | 5:11.21 | 22620 | 45965
3 | 10:12.66 | 3:18.19 | 45966 | 60834
4 | 13:31.10 | 4:58.47 | 60835 | 83231
5 | 18:29.57 | 5:24.26 | 83232 | 107557
6 | 23:54.08 | 13:07.57 | 107558 | 166639
Track 1
Filename C:\tmp\00_RIPS\01 - Evil.wav
Pre-gap length 0:00:02.00
Peak level 92.6 %
Extraction speed 8.9 X
Track quality 100.0 %
Test CRC F1687B8F
Copy CRC F1687B8F
Accurately ripped (confidence 16) [542A5192] (AR v2)
Copy OK
Track 2
Filename C:\tmp\00_RIPS\02 - Keep Your Head To The Sky.wav
Peak level 68.9 %
Extraction speed 10.0 X
Track quality 100.0 %
Test CRC DAF80EF2
Copy CRC DAF80EF2
Accurately ripped (confidence 16) [EBE383F2] (AR v2)
Copy OK
Track 3
Filename C:\tmp\00_RIPS\03 - Build Your Nest.wav
Peak level 67.0 %
Extraction speed 10.5 X
Track quality 100.0 %
Test CRC 68A74A2E
Copy CRC 68A74A2E
Accurately ripped (confidence 16) [D405B8B1] (AR v2)
Copy OK
Track 4
Filename C:\tmp\00_RIPS\04 - The World's A Masquerade.wav
Peak level 79.7 %
Extraction speed 11.5 X
Track quality 100.0 %
Test CRC 304E983C
Copy CRC 304E983C
Accurately ripped (confidence 16) [CD363E89] (AR v2)
Copy OK
Track 5
Filename C:\tmp\00_RIPS\05 - Clover.wav
Peak level 68.5 %
Extraction speed 10.8 X
Track quality 99.9 %
Test CRC 25BA5388
Copy CRC 25BA5388
Accurately ripped (confidence 16) [1E4BEC61] (AR v2)
Copy OK
Track 6
Filename C:\tmp\00_RIPS\06 - Zanzibar.wav
Peak level 81.5 %
Extraction speed 12.9 X
Track quality 100.0 %
Test CRC 8144EEDE
Copy CRC 8144EEDE
Accurately ripped (confidence 16) [873A03F7] (AR v2)
Copy OK
All tracks accurately ripped
No errors occurred
End of status report
---- CUETools DB Plugin V2.1.6
[CTDB TOCID: GmkOq1m9vDDdYcPLjFbLZm2IQsY-] found
Submit result: GmkOq1m9vDDdYcPLjFbLZm2IQsY- has been confirmed
Track | CTDB Status
1 | (7/7) Accurately ripped
2 | (7/7) Accurately ripped
3 | (7/7) Accurately ripped
4 | (7/7) Accurately ripped
5 | (7/7) Accurately ripped
6 | (7/7) Accurately ripped
==== Log checksum 3DD2EF42597ABACE238225CF23ECEA2421FEE7EFE28EB214B5C398F648FEB15D ====
 
Содержание индексной карты (.CUE)
REM GENRE Funk
REM DATE 1973
REM DISCID 3108AD06
REM COMMENT "ExactAudioCopy v1.3"
CATALOG 0780014223625
PERFORMER "Earth, Wind & Fire"
TITLE "Head to the Sky"
FILE "01 - Evil.wav" WAVE
TRACK 01 AUDIO
TITLE "Evil"
PERFORMER "Earth, Wind & Fire"
ISRC USSM11410233
INDEX 01 00:00:00
FILE "02 - Keep Your Head to the Sky.wav" WAVE
TRACK 02 AUDIO
TITLE "Keep Your Head to the Sky"
PERFORMER "Earth, Wind & Fire"
ISRC USSM11410234
INDEX 01 00:00:00
FILE "03 - Build Your Nest.wav" WAVE
TRACK 03 AUDIO
TITLE "Build Your Nest"
PERFORMER "Earth, Wind & Fire"
ISRC USSM11410235
INDEX 01 00:00:00
FILE "04 - The World's a Masquerade.wav" WAVE
TRACK 04 AUDIO
TITLE "The World's a Masquerade"
PERFORMER "Earth, Wind & Fire"
ISRC USSM11410236
INDEX 01 00:00:00
FILE "05 - Clover.wav" WAVE
TRACK 05 AUDIO
TITLE "Clover"
PERFORMER "Earth, Wind & Fire"
ISRC USSM11410237
INDEX 01 00:00:00
FILE "06 - Zanzibar.wav" WAVE
TRACK 06 AUDIO
TITLE "Zanzibar"
PERFORMER "Earth, Wind & Fire"
ISRC USSM11410238
INDEX 01 00:00:00
 
Отчет CUETools
[CUETools log; Date: 20.07.2017 14:04:25; Version: 2.1.5]
[CTDB TOCID: GmkOq1m9vDDdYcPLjFbLZm2IQsY-] found.
Track | CTDB Status
1 | (8/8) Accurately ripped
2 | (8/8) Accurately ripped
3 | (8/8) Accurately ripped
4 | (8/8) Accurately ripped
5 | (8/8) Accurately ripped
6 | (8/8) Accurately ripped
[AccurateRip ID: 00076dc3-00288103-3108ad06] found.
Track [ CRC | V2 ] Status
01 [cc47c2fd|542a5192] (00+16/16) Accurately ripped
02 [af8dbd64|ebe383f2] (00+16/16) Accurately ripped
03 [1426ddd8|d405b8b1] (00+16/16) Accurately ripped
04 [0db1ce66|cd363e89] (00+16/16) Accurately ripped
05 [d0d38fdd|1e4bec61] (00+16/16) Accurately ripped
06 [284abeaf|873a03f7] (00+16/16) Accurately ripped
Track Peak [ CRC32 ] [W/O NULL] [ LOG ]
-- 92,6 [B2854E55] [DC1EB5B4]
01 92,6 [F1687B8F] [27ABAB6F] CRC32
02 68,9 [DAF80EF2] [EF41301B] CRC32
03 67,0 [68A74A2E] [0507961D] CRC32
04 79,7 [304E983C] [E6047842] CRC32
05 68,5 [25BA5388] [CDE719F5] CRC32
06 81,5 [8144EEDE] [7144C0A8] CRC32
 
AllMusic Review by Alex Henderson
As phenomenally popular as Earth, Wind & Fire was from the mid-'70s to the early '80s, it's easy to forget that the band was hardly an overnight success. With Head to the Sky -- EWF's fourth album overall, second with Philip Bailey, and second for Columbia -- Maurice White's very spiritual and ambitious brand of soul and funk was starting to pay off commercially. The Latin-influenced "Evil" became the soulsters' biggest hit up to that point, and material ranging from the hauntingly pretty title song (which boasts one of Bailey's finest performances ever) to the jazz fusion gem "Zanzibar" is just as rewarding. The lineup White unveiled with Last Days and Time was working out beautifully; Bailey was clearly proving to be a major asset. Also worth noting is the presence of singer Jessica Cleaves, who left after this album and, several years later, resurfaced in George Clinton's eccentric female group the Brides of Funkenstein. EWF still had what was basically a cult following, but that was beginning to change with Head to the Sky. And when EWF took off commercially in 1974 and 1975, many new converts went back and saw for themselves just how excellent an album Head to the Sky was.
Приватный:
Нет (DHT включён)
Размер:
207.98 Мб (218,081,488 байт) » файлов: 21
Участники:
0 раздают, 0 качают (0 участников всего)
Внешние участники:
3 раздают, 1 качают (4 участников всего) [ Обновить ]
Есть вопросы - пишите личное сообщение пользователю M0p94ok.
14:12
58
Нет комментариев. Ваш будет первым!