Поиск

(R&B, Soul) [CD] Otis Redding - Otis Blue/Otis Redding Sings Soul - 1965 (2016 Analogue), FLAC (tracks+.cue), lossless

(R&B, Soul) [CD] Otis Redding - Otis Blue/Otis Redding Sings Soul - 1965 (2016 Analogue), FLAC (tracks+.cue), lossless
Треклист:
Otis Redding - Otis Blue/Otis Redding Sings Soul
Жанр: R&B, Soul
Носитель: CD
Страна-производитель диска (релиза): США
Год издания: 1965 (2016)
Издатель (лейбл): Analogue Productions
Номер по каталогу: CAPP 095 SA
Аудиокодек: FLAC (*.flac)
Тип рипа: tracks+.cue
Битрейт аудио: lossless
Продолжительность: 33:39
Источник (релизер): mclarenspy
Наличие сканов в содержимом раздачи: да
Треклист:
01. Ole Man Trouble (2:40)
02. Respect (2:09)
03. Change Gonna Come (4:23)
04. Down in the Valley (3:01)
05. I've Been Loving You Too Long (3:18)
06. Shake (2:43)
07. My Girl (2:56)
08. Wonderful World (3:12)
09. Rock Me Baby (3:32)
10. Satisfaction (2:49)
11. You Don't Miss Your Water (2:56)
 
Лог создания рипа
Exact Audio Copy V1.3 from 2. September 2016
EAC extraction logfile from 1. April 2017, 20:15
Otis Redding / Otis Blue: Otis Redding Sings Soul (2016 AP)
Used drive : ATAPI iHAS124 E Adapter: 1 ID: 0
Read mode : Secure
Utilize accurate stream : Yes
Defeat audio cache : Yes
Make use of C2 pointers : No
Read offset correction : 6
Overread into Lead-In and Lead-Out : No
Fill up missing offset samples with silence : Yes
Delete leading and trailing silent blocks : No
Null samples used in CRC calculations : Yes
Used interface : Native Win32 interface for Win NT & 2000
Gap handling : Appended to previous track
Used output format : User Defined Encoder
Selected bitrate : 768 kBit/s
Quality : High
Add ID3 tag : No
Command line compressor : C:\Program Files (x86)\Exact Audio Copy\FLAC\FLAC.EXE
Additional command line options : -6 -e -p -V -T "ARTIST=%artist%" -T "TITLE=%title%" -T "ALBUM=%albumtitle%" -T "DATE=%year%" -T "TRACKNUMBER=%tracknr%" -T "GENRE=%genre%" -T "PERFORMER=%albuminterpret%" -T "COMPOSER=%composer%" %haslyrics%--tag-from-file=LYRICS="%lyricsfile%"%haslyrics% -T "ALBUMARTIST=%albumartist%" -T "DISCNUMBER=%cdnumber%" -T "TOTALDISCS=%totalcds%" -T "TOTALTRACKS=%numtracks%" -T "COMMENT=%comment%" %source% -o %dest%
TOC of the extracted CD
Track | Start | Length | Start sector | End sector
---------------------------------------------------------
1 | 0:00.00 | 2:40.36 | 0 | 12035
2 | 2:40.36 | 2:08.74 | 12036 | 21709
3 | 4:49.35 | 4:23.22 | 21710 | 41456
4 | 9:12.57 | 3:00.47 | 41457 | 55003
5 | 12:13.29 | 3:17.38 | 55004 | 69816
6 | 15:30.67 | 2:42.38 | 69817 | 82004
7 | 18:13.30 | 2:56.30 | 82005 | 95234
8 | 21:09.60 | 3:11.67 | 95235 | 109626
9 | 24:21.52 | 3:31.47 | 109627 | 125498
10 | 27:53.24 | 2:49.05 | 125499 | 138178
11 | 30:42.29 | 2:56.16 | 138179 | 151394
Track 1
Filename C:\tmp\00_RIPS\01 - Ole Man Trouble.wav
Pre-gap length 0:00:02.00
Peak level 80.7 %
Extraction speed 1.9 X
Track quality 100.0 %
Test CRC 5385F849
Copy CRC 5385F849
Accurately ripped (confidence 1) [A168732A] (AR v2)
Copy OK
Track 2
Filename C:\tmp\00_RIPS\02 - Respect.wav
Pre-gap length 0:00:01.12
Peak level 85.2 %
Extraction speed 2.0 X
Track quality 100.0 %
Test CRC 21B55848
Copy CRC 21B55848
Accurately ripped (confidence 1) [8C11A077] (AR v2)
Copy OK
Track 3
Filename C:\tmp\00_RIPS\03 - Change Gonna Come.wav
Pre-gap length 0:00:01.97
Peak level 76.9 %
Extraction speed 1.8 X
Track quality 99.9 %
Test CRC 2A0AB301
Copy CRC 2A0AB301
Accurately ripped (confidence 1) [3907D4BE] (AR v2)
Copy OK
Track 4
Filename C:\tmp\00_RIPS\04 - Down In The Valley.wav
Pre-gap length 0:00:02.98
Peak level 78.9 %
Extraction speed 2.4 X
Track quality 100.0 %
Test CRC 284F5827
Copy CRC 284F5827
Accurately ripped (confidence 1) [37EF6DC4] (AR v2)
Copy OK
Track 5
Filename C:\tmp\00_RIPS\05 - I've Been Loving You Too Long.wav
Pre-gap length 0:00:01.92
Peak level 87.4 %
Extraction speed 1.8 X
Track quality 99.9 %
Test CRC E092C4ED
Copy CRC E092C4ED
Accurately ripped (confidence 1) [5569440F] (AR v2)
Copy OK
Track 6
Filename C:\tmp\00_RIPS\06 - Shake.wav
Pre-gap length 0:00:02.78
Peak level 88.0 %
Extraction speed 2.6 X
Track quality 100.0 %
Test CRC 6DF57EFD
Copy CRC 6DF57EFD
Accurately ripped (confidence 1) [1F5F8C38] (AR v2)
Copy OK
Track 7
Filename C:\tmp\00_RIPS\07 - My Girl.wav
Pre-gap length 0:00:01.73
Peak level 75.0 %
Extraction speed 2.8 X
Track quality 100.0 %
Test CRC 5299CEFE
Copy CRC 5299CEFE
Accurately ripped (confidence 1) [3B2D3AAB] (AR v2)
Copy OK
Track 8
Filename C:\tmp\00_RIPS\08 - Wonderful World.wav
Pre-gap length 0:00:02.17
Peak level 82.3 %
Extraction speed 2.0 X
Track quality 99.9 %
Test CRC 061B32A1
Copy CRC 061B32A1
Accurately ripped (confidence 1) [0E00ECC6] (AR v2)
Copy OK
Track 9
Filename C:\tmp\00_RIPS\09 - Rock Me Baby.wav
Pre-gap length 0:00:03.30
Peak level 100.0 %
Extraction speed 3.1 X
Track quality 100.0 %
Test CRC 57630480
Copy CRC 57630480
Accurately ripped (confidence 1) [F6C0E89B] (AR v2)
Copy OK
Track 10
Filename C:\tmp\00_RIPS\10 - Satisfaction.wav
Pre-gap length 0:00:02.06
Peak level 86.7 %
Extraction speed 3.1 X
Track quality 100.0 %
Test CRC 93D3FAB3
Copy CRC 93D3FAB3
Accurately ripped (confidence 1) [B79F1BF1] (AR v2)
Copy OK
Track 11
Filename C:\tmp\00_RIPS\11 - You Don't Miss Your Water.wav
Pre-gap length 0:00:02.17
Peak level 67.9 %
Extraction speed 3.2 X
Track quality 100.0 %
Test CRC 449100FD
Copy CRC 449100FD
Accurately ripped (confidence 1) [335A67EA] (AR v2)
Copy OK
All tracks accurately ripped
No errors occurred
End of status report
---- CUETools DB Plugin V2.1.6
[CTDB TOCID: MEZOQWO_1WYqcD.naBAzu0nGQwc-] disk not present in database
Submit result: MEZOQWO_1WYqcD.naBAzu0nGQwc- has been uploaded
==== Log checksum CE062514C22FF84677B826FB2378E01EAC74D070A50FC60F40573127C65E3999 ====
 
Содержание индексной карты (.CUE)
REM GENRE Soul
REM DATE 1965
REM DISCID 8E07E20B
REM COMMENT "ExactAudioCopy v1.3"
PERFORMER "Otis Redding"
TITLE "Otis Blue/Otis Redding Sings Soul"
FILE "01 - Ole Man Trouble.wav" WAVE
TRACK 01 AUDIO
TITLE "Ole Man Trouble"
PERFORMER "Otis Redding"
INDEX 01 00:00:00
TRACK 02 AUDIO
TITLE "Respect"
PERFORMER "Otis Redding"
INDEX 00 02:39:27
FILE "02 - Respect.wav" WAVE
INDEX 01 00:00:00
TRACK 03 AUDIO
TITLE "Change Gonna Come"
PERFORMER "Otis Redding"
INDEX 00 02:07:01
FILE "03 - Change Gonna Come.wav" WAVE
INDEX 01 00:00:00
TRACK 04 AUDIO
TITLE "Down in the Valley"
PERFORMER "Otis Redding"
INDEX 00 04:20:23
FILE "04 - Down in the Valley.wav" WAVE
INDEX 01 00:00:00
TRACK 05 AUDIO
TITLE "I've Been Loving You Too Long"
PERFORMER "Otis Redding"
INDEX 00 02:58:53
FILE "05 - I've Been Loving You Too Long.wav" WAVE
INDEX 01 00:00:00
TRACK 06 AUDIO
TITLE "Shake"
PERFORMER "Otis Redding"
INDEX 00 03:14:54
FILE "06 - Shake.wav" WAVE
INDEX 01 00:00:00
TRACK 07 AUDIO
TITLE "My Girl"
PERFORMER "Otis Redding"
INDEX 00 02:40:58
FILE "07 - My Girl.wav" WAVE
INDEX 01 00:00:00
TRACK 08 AUDIO
TITLE "Wonderful World"
PERFORMER "Otis Redding"
INDEX 00 02:54:17
FILE "08 - Wonderful World.wav" WAVE
INDEX 01 00:00:00
TRACK 09 AUDIO
TITLE "Rock Me Baby"
PERFORMER "Otis Redding"
INDEX 00 03:08:44
FILE "09 - Rock Me Baby.wav" WAVE
INDEX 01 00:00:00
TRACK 10 AUDIO
TITLE "Satisfaction"
PERFORMER "Otis Redding"
INDEX 00 03:29:42
FILE "10 - Satisfaction.wav" WAVE
INDEX 01 00:00:00
TRACK 11 AUDIO
TITLE "You Don't Miss Your Water"
PERFORMER "Otis Redding"
INDEX 00 02:46:67
FILE "11 - You Don't Miss Your Water.wav" WAVE
INDEX 01 00:00:00
 
Отчет CUETools
[CUETools log; Date: 20.07.2017 11:15:26; Version: 2.1.5]
[CTDB TOCID: MEZOQWO_1WYqcD.naBAzu0nGQwc-] found.
Track | CTDB Status
1 | (1/1) Accurately ripped
2 | (1/1) Accurately ripped
3 | (1/1) Accurately ripped
4 | (1/1) Accurately ripped
5 | (1/1) Accurately ripped
6 | (1/1) Accurately ripped
7 | (1/1) Accurately ripped
8 | (1/1) Accurately ripped
9 | (1/1) Accurately ripped
10 | (1/1) Accurately ripped
11 | (1/1) Accurately ripped
[AccurateRip ID: 000dc34c-0077fbaa-8e07e20b] found.
Track [ CRC | V2 ] Status
01 [de734333|a168732a] (0+3/3) Accurately ripped
02 [c1f68c43|8c11a077] (0+3/3) Accurately ripped
03 [ee4a6de6|3907d4be] (0+3/3) Accurately ripped
04 [b4c148fe|37ef6dc4] (0+3/3) Accurately ripped
05 [b218f23b|5569440f] (0+3/3) Accurately ripped
06 [f368999c|1f5f8c38] (0+3/3) Accurately ripped
07 [679b1f8d|3b2d3aab] (0+3/3) Accurately ripped
08 [af93c261|0e00ecc6] (0+3/3) Accurately ripped
09 [f12b89a4|f6c0e89b] (0+3/3) Accurately ripped
10 [13f4b50f|b79f1bf1] (0+3/3) Accurately ripped
11 [c690c54a|335a67ea] (0+3/3) Accurately ripped
Track Peak [ CRC32 ] [W/O NULL] [ LOG ]
-- 100,0 [411C9E33] [C0E11C2F]
01 80,7 [5385F849] [4D9A6139] CRC32
02 85,2 [21B55848] [310B8F2E] CRC32
03 76,9 [2A0AB301] [C02A235C] CRC32
04 78,9 [284F5827] [F5A259BA] CRC32
05 87,4 [E092C4ED] [7852A877] CRC32
06 88,0 [6DF57EFD] [7D3B7A61] CRC32
07 75,0 [5299CEFE] [E491F7E3] CRC32
08 82,3 [061B32A1] [95ABDDAA] CRC32
09 100,0 [57630480] [4186144C] CRC32
10 86,7 [93D3FAB3] [6C98D4B3] CRC32
11 67,9 [449100FD] [B48A0D51] CRC32
 
AllMusic Review by Bruce Eder
Otis Redding's third album, and his first fully realized album, presents his talent unfettered, his direction clear, and his confidence emboldened, with fully half the songs representing a reach that extended his musical grasp. More than a quarter of this album is given over to Redding's versions of songs by Sam Cooke, his idol, who had died the previous December, and all three are worth owning and hearing. Two of them, "A Change Is Gonna Come" and "Shake," are every bit as essential as any soul recordings ever made, and while they (and much of this album) have reappeared on several anthologies, it's useful to hear the songs from those sessions juxtaposed with each other, and with "Wonderful World," which is seldom compiled elsewhere. Also featured are Redding's spellbinding renditions of "(I Can't Get No) Satisfaction" (a song epitomizing the fully formed Stax/Volt sound and which Mick Jagger and Keith Richards originally wrote in tribute to and imitation of Redding's style), "My Girl," and "You Don't Miss Your Water." "Respect" and "I've Been Loving You Too Long," two originals that were to loom large in his career, are here as well; the former became vastly popular in the hands of Aretha Franklin and the latter was an instant soul classic. Among the seldom-cited jewels here is a rendition of B.B. King's "Rock Me Baby" that has the singer sharing the spotlight with Steve Cropper, his playing alternately elegant and fiery, with Wayne Jackson and Gene "Bowlegs" Miller's trumpets and Andrew Love's and Floyd Newman's saxes providing the backing. Redding's powerful, remarkable singing throughout makes Otis Blue gritty, rich, and achingly alive, and an essential listening experience.
Приватный:
Нет (DHT включён)
Размер:
191.39 Мб (200,691,734 байт) » файлов: 21
Участники:
0 раздают, 0 качают (0 участников всего)
Внешние участники:
8 раздают, 2 качают (10 участников всего) [ Обновить ]
Есть вопросы - пишите личное сообщение пользователю M0p94ok.
14:09
52
Нет комментариев. Ваш будет первым!