Поиск

(Funk, Soul) [CD] Augusto Martelli - Black Sound from White People - 1972 (2015 Japan Edition), FLAC (tracks+.cue), lossless

(Funk, Soul) [CD] Augusto Martelli - Black Sound from White People - 1972 (2015 Japan Edition), FLAC (tracks+.cue), lossless
Треклист:
Augusto Martelli - Black Sound from White People
Жанр: Funk, Soul
Носитель: CD
Страна-производитель диска (релиза): Япония
Год издания: 1972 (2015)
Издатель (лейбл): Universal Music Japan
Номер по каталогу: UICY-77270
Страна исполнителя (группы): Италия
Аудиокодек: FLAC (*.flac)
Тип рипа: tracks+.cue
Битрейт аудио: lossless
Продолжительность: 42:35
Источник (релизер): leshafunk
Наличие сканов в содержимом раздачи: нет
Треклист:
01. Loco Love Motor (Martelli) - 8:08
02. Ma Ne Vale La Pena (Selleri-Martelli) - 5:57
03. Krypto Blues (Martelli) - 6:15
04. Nanaue' (Martelli) - 3:58
05. Free Samba (Prestipino-Martelli) - 5:12
06. Mondo... No! (Selleri-Martelli) - 4:55
07. Sara' Stato Il Futuro (Selleri-Martelli) - 5:00
08. 90° Compleanno (90th Birthday) (Martelli) - 3:10
Состав:
Augusto Martelli - organ, piano, keyboards, percussion, recorder
Giorgio Baiocco - tenor saxophone, flute
Giancarlo Barigozzi - soprano saxophone, flute
Pino Presti - electric bass
Tullio de Piscopo - drums
Lino Liguori - percussion
Massimo Verardi - electric guitar
Recorded at Mondial Sound, Milano.
 
Лог создания рипа
Exact Audio Copy V1.0 beta 3 from 29. August 2011
EAC extraction logfile from 3. December 2017, 11:12
Augusto Martelli / Black Sound From White People
Used drive : TSSTcorpCDDVDW SH-224DB Adapter: 0 ID: 1
Read mode : Secure
Utilize accurate stream : Yes
Defeat audio cache : Yes
Make use of C2 pointers : No
Read offset correction : 6
Overread into Lead-In and Lead-Out : No
Fill up missing offset samples with silence : Yes
Delete leading and trailing silent blocks : No
Null samples used in CRC calculations : Yes
Used interface : Native Win32 interface for Win NT & 2000
Gap handling : Appended to previous track
Used output format : User Defined Encoder
Selected bitrate : 256 kBit/s
Quality : High
Add ID3 tag : No
Command line compressor : C:\Program Files\Exact Audio Copy\FLAC\FLAC.EXE
Additional command line options : -8 -V -T "ARTIST=%artist%" -T "TITLE=%title%" -T "ALBUM=%albumtitle%" -T "DATE=%year%" -T "TRACKNUMBER=%tracknr%" -T "TOTALTRACKS=%numtracks%" -T "GENRE=%genre%" -T "ALBUMARTIST=%albumartist%" -T "ALBUM ARTIST=%albumartist%" -T "COMMENT=EAC Secure Mode, Test & Copy, AccurateRip, FLAC -8" %source%
TOC of the extracted CD
Track | Start | Length | Start sector | End sector
---------------------------------------------------------
1 | 0:00.00 | 8:08.17 | 0 | 36616
2 | 8:08.17 | 5:57.13 | 36617 | 63404
3 | 14:05.30 | 6:14.40 | 63405 | 91494
4 | 20:19.70 | 3:57.62 | 91495 | 109331
5 | 24:17.57 | 5:11.65 | 109332 | 132721
6 | 29:29.47 | 4:54.48 | 132722 | 154819
7 | 34:24.20 | 5:00.05 | 154820 | 177324
8 | 39:24.25 | 3:10.12 | 177325 | 191586
Track 1
Filename E:\Lossless\Augusto Martelli - Black Sound From White People (1972) [FLAC] {Japan UICY-77270}\01 - Loco Love Motor.wav
Pre-gap length 0:00:02.00
Peak level 94.8 %
Extraction speed 1.9 X
Track quality 100.0 %
Test CRC 03FDC542
Copy CRC 03FDC542
Accurately ripped (confidence 2) [1CB0D75F] (AR v2)
Copy OK
Track 2
Filename E:\Lossless\Augusto Martelli - Black Sound From White People (1972) [FLAC] {Japan UICY-77270}\02 - Ma Ne Vale La Pena.wav
Pre-gap length 0:00:03.00
Peak level 95.3 %
Extraction speed 2.2 X
Track quality 100.0 %
Test CRC 9893F150
Copy CRC 9893F150
Accurately ripped (confidence 2) [753EBD35] (AR v2)
Copy OK
Track 3
Filename E:\Lossless\Augusto Martelli - Black Sound From White People (1972) [FLAC] {Japan UICY-77270}\03 - Kripto Blues.wav
Pre-gap length 0:00:02.50
Peak level 95.3 %
Extraction speed 2.5 X
Track quality 100.0 %
Test CRC 5504A398
Copy CRC 5504A398
Accurately ripped (confidence 2) [8A5FD094] (AR v2)
Copy OK
Track 4
Filename E:\Lossless\Augusto Martelli - Black Sound From White People (1972) [FLAC] {Japan UICY-77270}\04 - Nanaue'.wav
Pre-gap length 0:00:02.50
Peak level 93.1 %
Extraction speed 2.6 X
Track quality 100.0 %
Test CRC E3F9D2E8
Copy CRC E3F9D2E8
Accurately ripped (confidence 2) [B4979657] (AR v2)
Copy OK
Track 5
Filename E:\Lossless\Augusto Martelli - Black Sound From White People (1972) [FLAC] {Japan UICY-77270}\05 - Free Samba.wav
Pre-gap length 0:00:02.50
Peak level 95.3 %
Extraction speed 2.8 X
Track quality 100.0 %
Test CRC 86AFB890
Copy CRC 86AFB890
Accurately ripped (confidence 2) [4012F141] (AR v2)
Copy OK
Track 6
Filename E:\Lossless\Augusto Martelli - Black Sound From White People (1972) [FLAC] {Japan UICY-77270}\06 - Mondo... No!.wav
Pre-gap length 0:00:02.50
Peak level 95.3 %
Extraction speed 2.9 X
Track quality 100.0 %
Test CRC C32C70F4
Copy CRC C32C70F4
Accurately ripped (confidence 2) [F556F001] (AR v2)
Copy OK
Track 7
Filename E:\Lossless\Augusto Martelli - Black Sound From White People (1972) [FLAC] {Japan UICY-77270}\07 - Sara' Stato Il Futuro.wav
Pre-gap length 0:00:02.50
Peak level 95.3 %
Extraction speed 3.1 X
Track quality 100.0 %
Test CRC 43F701D5
Copy CRC 43F701D5
Accurately ripped (confidence 2) [7F3671CE] (AR v2)
Copy OK
Track 8
Filename E:\Lossless\Augusto Martelli - Black Sound From White People (1972) [FLAC] {Japan UICY-77270}\08 - Noventasimo Compleanno (90th Birthday).wav
Pre-gap length 0:00:02.50
Peak level 93.9 %
Extraction speed 3.0 X
Track quality 100.0 %
Test CRC 8C46BA7B
Copy CRC 8C46BA7B
Accurately ripped (confidence 2) [DA86658F] (AR v2)
Copy OK
All tracks accurately ripped
No errors occurred
End of status report
==== Log checksum 96B7AE38C7BF28DD82D77C9C4913AF4687C4837983E423FE1AFCB805041A3045 ====
 
Содержание индексной карты (.CUE)
REM GENRE Funk
REM DATE 1972
REM DISCID 6A09FA08
REM COMMENT "ExactAudioCopy v1.0b3"
PERFORMER "Augusto Martelli"
TITLE "Black Sound from White People"
FILE "01 - Loco Love Motor.wav" WAVE
TRACK 01 AUDIO
TITLE "Loco Love Motor"
PERFORMER "Augusto Martelli"
INDEX 01 00:00:00
TRACK 02 AUDIO
TITLE "Ma Ne Vale La Pena"
PERFORMER "Augusto Martelli"
INDEX 00 08:05:17
FILE "02 - Ma Ne Vale La Pena.wav" WAVE
INDEX 01 00:00:00
TRACK 03 AUDIO
TITLE "Krypto Blues"
PERFORMER "Augusto Martelli"
INDEX 00 05:54:38
FILE "03 - Krypto Blues.wav" WAVE
INDEX 01 00:00:00
TRACK 04 AUDIO
TITLE "Nanaue'"
PERFORMER "Augusto Martelli"
INDEX 00 06:11:65
FILE "04 - Nanaue'.wav" WAVE
INDEX 01 00:00:00
TRACK 05 AUDIO
TITLE "Free Samba"
PERFORMER "Augusto Martelli"
INDEX 00 03:55:12
FILE "05 - Free Samba.wav" WAVE
INDEX 01 00:00:00
TRACK 06 AUDIO
TITLE "Mondo... No!"
PERFORMER "Augusto Martelli"
INDEX 00 05:09:15
FILE "06 - Mondo... No!.wav" WAVE
INDEX 01 00:00:00
TRACK 07 AUDIO
TITLE "Sara' Stato Il Futuro"
PERFORMER "Augusto Martelli"
INDEX 00 04:51:73
FILE "07 - Sara' Stato Il Futuro.wav" WAVE
INDEX 01 00:00:00
TRACK 08 AUDIO
TITLE "90 Compleanno (90th Birthday)"
PERFORMER "Augusto Martelli"
INDEX 00 04:57:30
FILE "08 - 90 Compleanno (90th Birthday).wav" WAVE
INDEX 01 00:00:00
 
Отчет CUETools
[CUETools log; Date: 27.01.2018 1:36:18; Version: 2.1.5]
[CTDB TOCID: xhmteDx2CnVbZuiQpy0p.LzG5XU-] found.
Track | CTDB Status
1 | (2/2) Accurately ripped
2 | (2/2) Accurately ripped
3 | (2/2) Accurately ripped
4 | (2/2) Accurately ripped
5 | (2/2) Accurately ripped
6 | (2/2) Accurately ripped
7 | (2/2) Accurately ripped
8 | (2/2) Accurately ripped
[AccurateRip ID: 000e9b77-005e9705-6a09fa08] found.
Track [ CRC | V2 ] Status
01 [5d3615d2|1cb0d75f] (0+3/3) Accurately ripped
02 [4fc2e9f4|753ebd35] (0+3/3) Accurately ripped
03 [8bbd31ba|8a5fd094] (0+3/3) Accurately ripped
04 [dac6e083|b4979657] (0+3/3) Accurately ripped
05 [aa59310a|4012f141] (0+3/3) Accurately ripped
06 [0f7db116|f556f001] (0+3/3) Accurately ripped
07 [e47c82fd|7f3671ce] (0+3/3) Accurately ripped
08 [f15dac0e|da86658f] (0+3/3) Accurately ripped
Track Peak [ CRC32 ] [W/O NULL] [ LOG ]
-- 95,3 [8E2C1094] [38B9BB4F]
01 94,8 [03FDC542] [E2A1815A] CRC32
02 95,3 [9893F150] [84661A5A] CRC32
03 95,3 [5504A398] [A1F48846] CRC32
04 93,1 [E3F9D2E8] [C1F47B50] CRC32
05 95,3 [86AFB890] [90AEF01E] CRC32
06 95,3 [C32C70F4] [37DADEDC] CRC32
07 95,3 [43F701D5] [828583B2] CRC32
08 93,9 [8C46BA7B] [3E27D6F0] CRC32
 
Об альбоме (сборнике)
If you can forgive the title of this one, you'll find it to be a very groovy record! The album's a killer batch of funky instrumentals ("black sound") recorded in Italy in 1972 by Augusto Martelli ("white people") – and it's got the groove and swing of some of the best Italian soundtracks from the time, no surprise, as Martelli had his hand in a few from that era! The music is really great, with some excellent sax and flute work that takes the tracks into a jazzier mode than usual for this sort of thing! Loads of great percussion too.
Приватный:
Нет (DHT включён)
Размер:
248.19 Мб (260,250,881 байт) » файлов: 14
Участники:
0 раздают, 0 качают (0 участников всего)
Внешние участники:
3 раздают, 1 качают (4 участников всего) [ Обновить ]
Есть вопросы - пишите личное сообщение пользователю M0p94ok.
15:25
54
Нет комментариев. Ваш будет первым!