Поиск

(Funk, Soul, R&B) [CD] Phyllis Hyman - Living All Alone - 1986, FLAC (tracks+.cue), lossless

(Funk, Soul, R&B) [CD] Phyllis Hyman - Living All Alone - 1986, FLAC (tracks+.cue), lossless
Треклист:
Phyllis Hyman / Living All Alone
Жанр: Funk, Soul, R&B
Носитель: CD
Страна-производитель диска (релиза): USA
Год издания: 1986
Издатель (лейбл): Philadelphia International Records
Номер по каталогу: CDP 7-46422-2
Аудиокодек: FLAC (*.flac)
Тип рипа: tracks+.cue
Битрейт аудио: lossless
Продолжительность: 00:00:40:08
Источник (релизер): Unknow
Наличие сканов в содержимом раздачи: нет
Треклист:
1. Living All Alone (05:09)
2. First Time Together (04:02)
3. If You Want Me (04:20)
4. Slow Dancin' (04:30)
5. Old Friend (04:52)
6. You Just Don't Know (04:15)
7. Ain't You Had Enough Love (04:08)
8. Screamin' At The Moon (04:02)
9. What You Won't Do For Love (04:03)
 
Лог создания рипа
Exact Audio Copy V0.99 prebeta 4 from 23. January 2008
EAC extraction logfile from 25. May 2010, 23:45
Phyllis Hyman / Living All Alone
Used drive : TSSTcorpCD/DVDW SH-S182D Adapter: 3 ID: 0
Read mode : Secure
Utilize accurate stream : Yes
Defeat audio cache : Yes
Make use of C2 pointers : No
Read offset correction : 6
Overread into Lead-In and Lead-Out : No
Fill up missing offset samples with silence : Yes
Delete leading and trailing silent blocks : No
Null samples used in CRC calculations : Yes
Used interface : Native Win32 interface for Win NT & 2000
Gap handling : Appended to previous track
Used output format : User Defined Encoder
Selected bitrate : 320 kBit/s
Quality : High
Add ID3 tag : No
Command line compressor : C:\Arquivos de programas\Exact Audio Copy\Flac\flac.exe
Additional command line options : -V -8 -T "artist=%a" -T "title=%t" -T "album=%g" -T "date=%y" -T "tracknumber=%n" -T "genre=%m" %s
TOC of the extracted CD
Track | Start | Length | Start sector | End sector
---------------------------------------------------------
1 | 0:00.33 | 5:12.72 | 33 | 23504
2 | 5:13.30 | 4:06.60 | 23505 | 42014
3 | 9:20.15 | 4:23.23 | 42015 | 61762
4 | 13:43.38 | 4:37.47 | 61763 | 82584
5 | 18:21.10 | 4:55.25 | 82585 | 104734
6 | 23:16.35 | 4:18.13 | 104735 | 124097
7 | 27:34.48 | 4:16.45 | 124098 | 143342
8 | 31:51.18 | 4:13.12 | 143343 | 162329
9 | 36:04.30 | 4:04.25 | 162330 | 180654
Track 1
Filename L:\Recording\Phyllis Hyman (1987) Living All Alone\01 - Living All Alone.wav
Pre-gap length 0:00:02.44
Peak level 97.7 %
Track quality 100.0 %
Test CRC 10A7E76E
Copy CRC 10A7E76E
Accurately ripped (confidence 6) [E5E8D281]
Copy OK
Track 2
Filename L:\Recording\Phyllis Hyman (1987) Living All Alone\02 - First Time Together.wav
Pre-gap length 0:00:02.93
Peak level 97.7 %
Track quality 100.0 %
Test CRC 54554692
Copy CRC 54554692
Accurately ripped (confidence 6) [29DB0C04]
Copy OK
Track 3
Filename L:\Recording\Phyllis Hyman (1987) Living All Alone\03 - If You Want Me.wav
Pre-gap length 0:00:03.20
Peak level 96.5 %
Track quality 99.9 %
Test CRC EE6FE71D
Copy CRC EE6FE71D
Accurately ripped (confidence 6) [FE7F9461]
Copy OK
Track 4
Filename L:\Recording\Phyllis Hyman (1987) Living All Alone\04 - Slow Dancin'.wav
Pre-gap length 0:00:02.57
Peak level 97.6 %
Track quality 99.9 %
Test CRC C6F40C68
Copy CRC C6F40C68
Accurately ripped (confidence 7) [78AA2817]
Copy OK
Track 5
Filename L:\Recording\Phyllis Hyman (1987) Living All Alone\05 - Old Friend.wav
Pre-gap length 0:00:02.22
Peak level 69.2 %
Track quality 100.0 %
Test CRC AA5AA0E0
Copy CRC AA5AA0E0
Accurately ripped (confidence 7) [0DBC2D6A]
Copy OK
Track 6
Filename L:\Recording\Phyllis Hyman (1987) Living All Alone\06 - You Just Don't Know.wav
Pre-gap length 0:00:02.82
Peak level 97.7 %
Track quality 100.0 %
Test CRC A013845E
Copy CRC A013845E
Accurately ripped (confidence 7) [9F4B4BFA]
Copy OK
Track 7
Filename L:\Recording\Phyllis Hyman (1987) Living All Alone\07 - Ain't You Had Enough Love.wav
Pre-gap length 0:00:02.30
Peak level 95.4 %
Track quality 100.0 %
Test CRC 5072F1C7
Copy CRC 5072F1C7
Accurately ripped (confidence 7) [8080D3C6]
Copy OK
Track 8
Filename L:\Recording\Phyllis Hyman (1987) Living All Alone\08 - Screaming At The Moon.wav
Pre-gap length 0:00:02.40
Peak level 97.7 %
Track quality 100.0 %
Test CRC 731C9E9D
Copy CRC 731C9E9D
Accurately ripped (confidence 6) [07B05B92]
Copy OK
Track 9
Filename L:\Recording\Phyllis Hyman (1987) Living All Alone\09 - What You Won't Do For Love.wav
Pre-gap length 0:00:02.00
Peak level 94.2 %
Track quality 100.0 %
Test CRC 30BBC9E8
Copy CRC 30BBC9E8
Accurately ripped (confidence 5) [77FFB2B5]
Copy OK
All tracks accurately ripped
No errors occurred
End of status report
 
Содержание индексной карты (.CUE)
REM GENRE R&B
REM DATE 1987
REM DISCID 70096809
REM COMMENT "ExactAudioCopy v0.99pb4"
PERFORMER "Phyllis Hyman"
TITLE "Living All Alone"
FILE "Phyllis Hyman (1987) Living All Alone\01 - Living All Alone.wav" WAVE
TRACK 01 AUDIO
TITLE "Living All Alone"
PERFORMER "Phyllis Hyman"
PREGAP 00:00:33
INDEX 01 00:00:00
TRACK 02 AUDIO
TITLE "First Time Together"
PERFORMER "Phyllis Hyman"
INDEX 00 05:10:02
FILE "Phyllis Hyman (1987) Living All Alone\02 - First Time Together.wav" WAVE
INDEX 01 00:00:00
TRACK 03 AUDIO
TITLE "If You Want Me"
PERFORMER "Phyllis Hyman"
INDEX 00 04:03:45
FILE "Phyllis Hyman (1987) Living All Alone\03 - If You Want Me.wav" WAVE
INDEX 01 00:00:00
TRACK 04 AUDIO
TITLE "Slow Dancin'"
PERFORMER "Phyllis Hyman"
INDEX 00 04:20:55
FILE "Phyllis Hyman (1987) Living All Alone\04 - Slow Dancin'.wav" WAVE
INDEX 01 00:00:00
TRACK 05 AUDIO
TITLE "Old Friend"
PERFORMER "Phyllis Hyman"
INDEX 00 04:35:30
FILE "Phyllis Hyman (1987) Living All Alone\05 - Old Friend.wav" WAVE
INDEX 01 00:00:00
TRACK 06 AUDIO
TITLE "You Just Don't Know"
PERFORMER "Phyllis Hyman"
INDEX 00 04:52:38
FILE "Phyllis Hyman (1987) Living All Alone\06 - You Just Don't Know.wav" WAVE
INDEX 01 00:00:00
TRACK 07 AUDIO
TITLE "Ain't You Had Enough Love"
PERFORMER "Phyllis Hyman"
INDEX 00 04:15:65
FILE "Phyllis Hyman (1987) Living All Alone\07 - Ain't You Had Enough Love.wav" WAVE
INDEX 01 00:00:00
TRACK 08 AUDIO
TITLE "Screaming At The Moon"
PERFORMER "Phyllis Hyman"
INDEX 00 04:14:15
FILE "Phyllis Hyman (1987) Living All Alone\08 - Screaming At The Moon.wav" WAVE
INDEX 01 00:00:00
TRACK 09 AUDIO
TITLE "What You Won't Do For Love"
PERFORMER "Phyllis Hyman"
INDEX 00 04:11:12
FILE "Phyllis Hyman (1987) Living All Alone\09 - What You Won't Do For Love.wav" WAVE
INDEX 01 00:00:00
 
Лог проверки качества
-----------------------
DON'T MODIFY THIS FILE
-----------------------
PERFORMER: auCDtect Task Manager, ver. 1.6.0 RC1 build 1.6.0.1
Copyright (c) 2008-2010 y-soft. All rights reserved
http://y-soft.org
ANALYZER: auCDtect: CD records authenticity detector, version 0.8.2
Copyright (c) 2004 Oleg Berngardt. All rights reserved.
Copyright (c) 2004 Alexander Djourik. All rights reserved.
FILE: 01 - Living All Alone.flac
Size: 31174950 Hash: F1712A17F4F52CC101E99E6885ED30D5 Accuracy: -m0
Conclusion: CDDA 100%
Signature: 64762572F168DBAD3E1CC753A6BC85DD85AE8A1F
FILE: 02 - First Time Together.flac
Size: 26341351 Hash: 351E4DAC71F5C7CABEFC752FD37359A9 Accuracy: -m0
Conclusion: CDDA 100%
Signature: DDF7618C3C36A8F0B7CED81E8CE119921DE6A43D
FILE: 03 - If You Want Me.flac
Size: 29613888 Hash: 5CAAFE2F8B474380A879595726CCF540 Accuracy: -m0
Conclusion: CDDA 100%
Signature: 3ADD42EAC04CB3C5D94AF81BBDAC4EB557011352
FILE: 04 - Slow Dancin'.flac
Size: 29805861 Hash: 409A7DD9F1D08F5F5ADCF9D557AA349C Accuracy: -m0
Conclusion: CDDA 100%
Signature: ECC4C8351873943C35CCC6A7CDA35696265ADB9D
FILE: 05 - Old Friend.flac
Size: 26757299 Hash: 27B121CE590AF08F1672430DF5B38B1F Accuracy: -m0
Conclusion: CDDA 99%
Signature: AEE84E604B109C937F4956D44871E2AE80B707A7
FILE: 06 - You Just Don't Know.flac
Size: 24967311 Hash: 6C27886759BB98A569EBCF608480F241 Accuracy: -m0
Conclusion: CDDA 100%
Signature: EF1028215D2FF1E100439E7A8246ED63F4C1AA04
FILE: 07 - Ain't You Had Enough Love.flac
Size: 29783429 Hash: 9BB4A18488D5722B365A419926B16166 Accuracy: -m0
Conclusion: CDDA 99%
Signature: BA35C6C450DBAB71D6FFFA02411806B8600E767F
FILE: 09 - What You Won't Do For Love.flac
Size: 26881675 Hash: 8B44C58C61BE0BC1C1BA44AD79842603 Accuracy: -m0
Conclusion: CDDA 100%
Signature: 27D8231C817239728569B30324737B229DE72157
FILE: 08 - Screaming At The Moon.flac
Size: 29982103 Hash: 678A1F305EEA1BAD79AF8769465624FA Accuracy: -m0
Conclusion: MPEG 95%
Signature: 822DAAE4B5DFAC4EB502195B3B0524641C9D7D4A
 
Скриншот спектра частот
 
08 - Screaming At The Moon.flac.Spectrogram
Благодарю Senor Peligro за помощь в нахождении альбома.
Приватный:
Нет (DHT включён)
Размер:
243.52 Мб (255,346,234 байт) » файлов: 14
Участники:
0 раздают, 0 качают (0 участников всего)
Внешние участники:
3 раздают, 1 качают (4 участников всего) [ Обновить ]
Есть вопросы - пишите личное сообщение пользователю M0p94ok.
15:24
110
Нет комментариев. Ваш будет первым!