Поиск

(Pop-Soul) [CD] Madeline Bell - Bell's A Poppin' - 1967 (2004), FLAC (image+.cue), lossless

(Pop-Soul) [CD] Madeline Bell - Bell's A Poppin' - 1967 (2004), FLAC (image+.cue), lossless
Треклист:
Madeline Bell - Bell's A Poppin'
Жанр: Pop-Soul
Носитель: CD
Страна-производитель диска (релиза): EC
Год издания: 1967 (2004)
Издатель (лейбл): RPM Records
Номер по каталогу: RPM 281
Страна исполнителя (группы): USA
Аудиокодек: FLAC (*.flac)
Тип рипа: image+.cue
Битрейт аудио: lossless
Продолжительность: 53:37
Источник (релизер): свой рип
Наличие сканов в содержимом раздачи: да
Треклист:
01. Picture Me Gone [3:00]
02. You Don't Love Me No More [1:56]
03. Baby I'll Come Right Away [2:22]
04. Beat The Clock [2:47]
05. Mr. Dream Merchant [2:44]
06. Can't Get Used To Losing You [2:25]
07. Soul Time [2:31]
08. I'm Gonna Make You Love Me [2:52]
09. I'm Gonna Leave You [3:05]
10. Last One To Be Loved [3:03]
11. I Didn't Wanna Have To Do It [2:32]
12. Mercy Mercy Mercy [3:06]
13. What The World Needs Now Is Love [2:59]
14. I Can't Wait To See My Baby's Face [2:37]
15. Don't Come Running To Me [2:49]
16. I Really Got Carried Away [2:20]
17. One Step At A Time [2:17]
18. You Won't See Me [3:27]
19. Climb Ev'ry Mountain [2:18]
20. It Makes No Difference Now [2:28]
 
Лог создания рипа
X Lossless Decoder version 20170729 (150.3)
XLD extraction logfile from 2018-01-27 22:14:04 +0500
Madeline Bell / Bell's A Poppin'
Used drive : HL-DT-ST DVDRAM GP60NS60 (revision PE00)
Media type : Pressed CD
Ripper mode : XLD Secure Ripper
Disable audio cache : OK for the drive with a cache less than 1375KiB
Make use of C2 pointers : NO
Read offset correction : 6
Max retry count : 20
Gap status : Analyzed, Appended
TOC of the extracted CD
Track | Start | Length | Start sector | End sector
---------------------------------------------------------
1 | 00:00:00 | 02:59:61 | 0 | 13485
2 | 02:59:61 | 01:55:51 | 13486 | 22161
3 | 04:55:37 | 02:22:32 | 22162 | 32843
4 | 07:17:69 | 02:47:18 | 32844 | 45386
5 | 10:05:12 | 02:43:59 | 45387 | 57670
6 | 12:48:71 | 02:25:07 | 57671 | 68552
7 | 15:14:03 | 02:31:36 | 68553 | 79913
8 | 17:45:39 | 02:52:18 | 79914 | 92831
9 | 20:37:57 | 03:05:22 | 92832 | 106728
10 | 23:43:04 | 03:02:53 | 106729 | 120431
11 | 26:45:57 | 02:32:00 | 120432 | 131831
12 | 29:17:57 | 03:05:41 | 131832 | 145747
13 | 32:23:23 | 02:59:36 | 145748 | 159208
14 | 35:22:59 | 02:36:55 | 159209 | 170963
15 | 37:59:39 | 02:48:57 | 170964 | 183620
16 | 40:48:21 | 02:19:68 | 183621 | 194113
17 | 43:08:14 | 02:16:39 | 194114 | 204352
18 | 45:24:53 | 03:26:57 | 204353 | 219859
19 | 48:51:35 | 02:17:58 | 219860 | 230192
20 | 51:09:18 | 02:28:19 | 230193 | 241311
List of alternate offset correction values
# | Absolute | Relative | Confidence
------------------------------------------
1 | 28 | 22 | 2
AccurateRip Summary (DiscID: 00267880-023750bf-180c9114)
Track 01 : OK (v2, confidence 2/2)
Track 02 : OK (v2, confidence 2/2)
Track 03 : OK (v2, confidence 2/4)
Track 04 : OK (v2, confidence 2/2)
Track 05 : OK (v2, confidence 2/4)
Track 06 : OK (v2, confidence 2/2)
Track 07 : OK (v2, confidence 2/2)
Track 08 : OK (v2, confidence 2/2)
Track 09 : OK (v2, confidence 2/2)
Track 10 : OK (v2, confidence 2/2)
Track 11 : OK (v2, confidence 2/2)
Track 12 : OK (v2, confidence 2/2)
Track 13 : OK (v2, confidence 2/2)
Track 14 : OK (v2, confidence 2/2)
Track 15 : OK (v2, confidence 2/2)
Track 16 : OK (v2, confidence 2/2)
Track 17 : OK (v2, confidence 2/2)
Track 18 : OK (v2, confidence 2/2)
Track 19 : OK (v2, confidence 2/2)
Track 20 : OK (v2, confidence 2/2)
->All tracks accurately ripped.
All Tracks
Filename : /Users/mihail/Music/CDs/Madeline Bell - Bell's A Poppin'.flac
Album gain : -7.04 dB
Peak : 0.981659
CRC32 hash (test run) : 97EE8BC1
CRC32 hash : 97EE8BC1
CRC32 hash (skip zero) : 19C16909
Statistics
Read error : 0
Jitter error (maybe fixed) : 0
Retry sector count : 0
Damaged sector count : 0
Track 01
Pre-gap length : 00:02:00
Track gain : -7.08 dB
Peak : 0.975830
CRC32 hash (test run) : 675FFB09
CRC32 hash : 675FFB09
CRC32 hash (skip zero) : 0051A344
AccurateRip v1 signature : 2625076A
AccurateRip v2 signature : 05932DD7
->Accurately ripped (v2, confidence 2/2)
Statistics
Read error : 0
Jitter error (maybe fixed) : 0
Retry sector count : 0
Damaged sector count : 0
Track 02
Pre-gap length : 00:02:21
Track gain : -6.49 dB
Peak : 0.973724
CRC32 hash (test run) : 09AEE909
CRC32 hash : 09AEE909
CRC32 hash (skip zero) : C54C9B11
AccurateRip v1 signature : E6F4C384
AccurateRip v2 signature : F73795F1
->Accurately ripped (v2, confidence 2/2)
Statistics
Read error : 0
Jitter error (maybe fixed) : 0
Retry sector count : 0
Damaged sector count : 0
Track 03
Pre-gap length : 00:02:21
Track gain : -5.88 dB
Peak : 0.967133
CRC32 hash (test run) : E81A6C9A
CRC32 hash : E81A6C9A
CRC32 hash (skip zero) : 435A089F
AccurateRip v1 signature : 0FD5ACB2
AccurateRip v2 signature : 6E4D3373
->Accurately ripped (v2, confidence 2/4)
Statistics
Read error : 0
Jitter error (maybe fixed) : 0
Retry sector count : 0
Damaged sector count : 0
Track 04
Pre-gap length : 00:02:21
Track gain : -6.78 dB
Peak : 0.981659
CRC32 hash (test run) : 4B9AB52B
CRC32 hash : 4B9AB52B
CRC32 hash (skip zero) : D876759F
AccurateRip v1 signature : 8F47FABC
AccurateRip v2 signature : 7B28250C
->Accurately ripped (v2, confidence 2/2)
Statistics
Read error : 0
Jitter error (maybe fixed) : 0
Retry sector count : 0
Damaged sector count : 0
Track 05
Pre-gap length : 00:02:20
Track gain : -6.87 dB
Peak : 0.971313
CRC32 hash (test run) : 1DF76520
CRC32 hash : 1DF76520
CRC32 hash (skip zero) : F25A792A
AccurateRip v1 signature : 033EE1FA
AccurateRip v2 signature : 6AB4EE7A
->Accurately ripped (v2, confidence 2/4)
Statistics
Read error : 0
Jitter error (maybe fixed) : 0
Retry sector count : 0
Damaged sector count : 0
Track 06
Pre-gap length : 00:02:20
Track gain : -6.67 dB
Peak : 0.974945
CRC32 hash (test run) : 5BE9C2F1
CRC32 hash : 5BE9C2F1
CRC32 hash (skip zero) : 2FDCB2B3
AccurateRip v1 signature : 3A2E1521
AccurateRip v2 signature : 7209F388
->Accurately ripped (v2, confidence 2/2)
Statistics
Read error : 0
Jitter error (maybe fixed) : 0
Retry sector count : 0
Damaged sector count : 0
Track 07
Pre-gap length : 00:02:20
Track gain : -7.36 dB
Peak : 0.969238
CRC32 hash (test run) : 803FF5D9
CRC32 hash : 803FF5D9
CRC32 hash (skip zero) : 66897AC8
AccurateRip v1 signature : 92A63BF4
AccurateRip v2 signature : E30755C3
->Accurately ripped (v2, confidence 2/2)
Statistics
Read error : 0
Jitter error (maybe fixed) : 0
Retry sector count : 0
Damaged sector count : 0
Track 08
Pre-gap length : 00:02:20
Track gain : -6.56 dB
Peak : 0.973083
CRC32 hash (test run) : 75C1A61A
CRC32 hash : 75C1A61A
CRC32 hash (skip zero) : 7C035C34
AccurateRip v1 signature : 6AF04794
AccurateRip v2 signature : F87260BF
->Accurately ripped (v2, confidence 2/2)
Statistics
Read error : 0
Jitter error (maybe fixed) : 0
Retry sector count : 0
Damaged sector count : 0
Track 09
Pre-gap length : 00:02:21
Track gain : -6.31 dB
Peak : 0.970123
CRC32 hash (test run) : B9492696
CRC32 hash : B9492696
CRC32 hash (skip zero) : FEA862B0
AccurateRip v1 signature : C316940B
AccurateRip v2 signature : 442E9045
->Accurately ripped (v2, confidence 2/2)
Statistics
Read error : 0
Jitter error (maybe fixed) : 0
Retry sector count : 0
Damaged sector count : 0
Track 10
Pre-gap length : 00:02:21
Track gain : -6.27 dB
Peak : 0.971832
CRC32 hash (test run) : 2CD4A43C
CRC32 hash : 2CD4A43C
CRC32 hash (skip zero) : D975E0D8
AccurateRip v1 signature : 7981E699
AccurateRip v2 signature : 1F5DE10D
->Accurately ripped (v2, confidence 2/2)
Statistics
Read error : 0
Jitter error (maybe fixed) : 0
Retry sector count : 0
Damaged sector count : 0
Track 11
Pre-gap length : 00:02:19
Track gain : -6.03 dB
Peak : 0.978363
CRC32 hash (test run) : 7F8B6814
CRC32 hash : 7F8B6814
CRC32 hash (skip zero) : 7097E41A
AccurateRip v1 signature : B1BFB4B1
AccurateRip v2 signature : AAAC8E69
->Accurately ripped (v2, confidence 2/2)
Statistics
Read error : 0
Jitter error (maybe fixed) : 0
Retry sector count : 0
Damaged sector count : 0
Track 12
Pre-gap length : 00:02:20
Track gain : -6.30 dB
Peak : 0.974487
CRC32 hash (test run) : E6769F39
CRC32 hash : E6769F39
CRC32 hash (skip zero) : 3FB3CA59
AccurateRip v1 signature : BE9FEB12
AccurateRip v2 signature : 173D7614
->Accurately ripped (v2, confidence 2/2)
Statistics
Read error : 0
Jitter error (maybe fixed) : 0
Retry sector count : 0
Damaged sector count : 0
Track 13
Pre-gap length : 00:02:45
Track gain : -6.58 dB
Peak : 0.966187
CRC32 hash (test run) : DD89FC7F
CRC32 hash : DD89FC7F
CRC32 hash (skip zero) : 6AAD4025
AccurateRip v1 signature : D4ECAEA2
AccurateRip v2 signature : E8D5DADE
->Accurately ripped (v2, confidence 2/2)
Statistics
Read error : 0
Jitter error (maybe fixed) : 0
Retry sector count : 0
Damaged sector count : 0
Track 14
Pre-gap length : 00:02:21
Track gain : -7.26 dB
Peak : 0.966156
CRC32 hash (test run) : 28B47B50
CRC32 hash : 28B47B50
CRC32 hash (skip zero) : 58DC06E9
AccurateRip v1 signature : 1D049A49
AccurateRip v2 signature : 041A4F0E
->Accurately ripped (v2, confidence 2/2)
Statistics
Read error : 0
Jitter error (maybe fixed) : 0
Retry sector count : 0
Damaged sector count : 0
Track 15
Pre-gap length : 00:02:21
Track gain : -7.09 dB
Peak : 0.966156
CRC32 hash (test run) : A6A047A7
CRC32 hash : A6A047A7
CRC32 hash (skip zero) : AC4F611D
AccurateRip v1 signature : 7A81526C
AccurateRip v2 signature : FCF6CF69
->Accurately ripped (v2, confidence 2/2)
Statistics
Read error : 0
Jitter error (maybe fixed) : 0
Retry sector count : 0
Damaged sector count : 0
Track 16
Pre-gap length : 00:02:21
Track gain : -7.81 dB
Peak : 0.966187
CRC32 hash (test run) : CA62B1B9
CRC32 hash : CA62B1B9
CRC32 hash (skip zero) : E72637A9
AccurateRip v1 signature : 701B6EAA
AccurateRip v2 signature : A8BE2A5B
->Accurately ripped (v2, confidence 2/2)
Statistics
Read error : 0
Jitter error (maybe fixed) : 0
Retry sector count : 0
Damaged sector count : 0
Track 17
Pre-gap length : 00:02:21
Track gain : -8.54 dB
Peak : 0.966187
CRC32 hash (test run) : CE899300
CRC32 hash : CE899300
CRC32 hash (skip zero) : D5FB549D
AccurateRip v1 signature : F21B21A1
AccurateRip v2 signature : 0853BD40
->Accurately ripped (v2, confidence 2/2)
Statistics
Read error : 0
Jitter error (maybe fixed) : 0
Retry sector count : 0
Damaged sector count : 0
Track 18
Pre-gap length : 00:02:21
Track gain : -7.22 dB
Peak : 0.966187
CRC32 hash (test run) : E167AEA9
CRC32 hash : E167AEA9
CRC32 hash (skip zero) : C2705C88
AccurateRip v1 signature : D1C98087
AccurateRip v2 signature : 8733BAEB
->Accurately ripped (v2, confidence 2/2)
Statistics
Read error : 0
Jitter error (maybe fixed) : 0
Retry sector count : 0
Damaged sector count : 0
Track 19
Pre-gap length : 00:02:20
Track gain : -7.96 dB
Peak : 0.966187
CRC32 hash (test run) : 24093A87
CRC32 hash : 24093A87
CRC32 hash (skip zero) : B0DF296E
AccurateRip v1 signature : F07FF62C
AccurateRip v2 signature : 47776B2A
->Accurately ripped (v2, confidence 2/2)
Statistics
Read error : 0
Jitter error (maybe fixed) : 0
Retry sector count : 0
Damaged sector count : 0
Track 20
Pre-gap length : 00:02:21
Track gain : -7.31 dB
Peak : 0.966187
CRC32 hash (test run) : E72F41E8
CRC32 hash : E72F41E8
CRC32 hash (skip zero) : 3B800B24
AccurateRip v1 signature : 7B31F8D9
AccurateRip v2 signature : F5A78C12
->Accurately ripped (v2, confidence 2/2)
Statistics
Read error : 0
Jitter error (maybe fixed) : 0
Retry sector count : 0
Damaged sector count : 0
No errors occurred
End of status report
-----BEGIN XLD SIGNATURE-----
BLcmCcOzwTlKkueoIvchCL_rYrnjNOfFOmdzfE.yBYBYxxxD.RL4crTMoKfW69deU2x2Y5eBQYdQdjdAy2yOwoMpdk7efJA33EGr3tG
-----END XLD SIGNATURE-----
 
Matrix

WikipediaAllmusic
Приватный:
Нет (DHT включён)
Размер:
513.68 Мб (538,635,074 байт) » файлов: 11
Участники:
0 раздают, 0 качают (0 участников всего)
Внешние участники:
1 раздают, 0 качают (1 участников всего) [ Обновить ]
No seeders - write personal message to user M0p94ok. Нет сидеров - пишите личное сообщение пользователю M0p94ok.
15:26
115
Нет комментариев. Ваш будет первым!