Поиск

(Funk Groove) Honolulu Playboys - Between Drinks - 2001, FLAC (image+.cue), lossless

(Funk Groove) Honolulu Playboys - Between Drinks - 2001, FLAC (image+.cue), lossless
Треклист:
Honolulu Playboys - Between Drinks
Жанр: Funk Groove
Год выпуска диска: 2001
Производитель диска: E.U.
Лейбл: neoRecords ltd. #LC-0542
Аудио кодек: FLAC
Тип рипа: image+.cue
Источник рипа: Собственный диск
Битрейт аудио: lossless
Продолжительность: 0:57:36
Трэклист:
01. 4:21 between drinks
02. 4:22 westbourne park
03. 5:56 okapi
04. 3:32 dorky
05. 3:28 w.bungert super
06. 2:44 walk the earth
07. 2:39 socks or bare feet
08. 2:53 blinding smile
09. 5:01 whippersnapper
10. 3:29 machine gun kelly
11. 4:49 outsider
12. 1:47 forced at gunpoint
13. 4:37 life`s a deadly kiss
14. 1:45 venus vidi
+ hidden track
 
Доп. информация
Honolulu Playboys
between drinks
All a good retro cocktail needs.
Mixed and shaken in Londons Studio 5000;
sixties beats, hot hammond organ, mellow bass and sharp guitar.
Greetings from Jimmy Smith!
These brilliant tracks have been concocted by:
Lutz Krajenski (Mousse T./ Tom Jones) on hammond organ,
Sergeant Eierknaake (Naked Navy) on guitar, Sven Kacirek on drums,
Ted Orenstein on percussion & Sascha Panknin on bass
Warm up your hips and dance!
produced by sascha panknin, written by ted orenstein & sascha panknin
mastered at deinklang by the hans
recorded at the DON AIR rehearsal room, March 22nd 2000
 
лог
Exact Audio Copy V0.99 prebeta 5 from 4. May 2009
Отчёт EAC об извлечении, выполненном 16. февраля 2010, 1:15
Honolulu Playboys / Between Drinks
Дисковод: ASUS DRW-1608P3S Adapter: 0 ID: 0
Режим чтения : Достоверность
Использование точного потока : Да
Отключение кэша аудио : Да
Использование указателей C2 : Нет
Коррекция смещения при чтении : 48
Способность читать области Lead-in и Lead-out : Нет
Заполнение пропущенных сэмплов тишиной : Да
Удаление блоков с тишиной в начале и конце : Нет
При вычислениях CRC использовались нулевые сэмплы : Да
Интерфейс : Установленный внешний ASPI-интерфейс
Выходной формат : Внутренние WAV-операции
Формат сэмплов : 44.100 Гц; 16 бит; стерео
TOC извлечённого CD
Трек | Старт | Длительность | Начальный сектор | Конечный сектор
---------------------------------------------------------------------
1 | 0:00.00 | 4:21.08 | 0 | 19582
2 | 4:21.08 | 4:23.23 | 19583 | 39330
3 | 8:44.31 | 5:57.53 | 39331 | 66158
4 | 14:42.09 | 3:33.43 | 66159 | 82176
5 | 18:15.52 | 4:47.68 | 82177 | 103769
6 | 23:03.45 | 2:45.13 | 103770 | 116157
7 | 25:48.58 | 2:40.66 | 116158 | 128223
8 | 28:29.49 | 2:54.68 | 128224 | 141341
9 | 31:24.42 | 5:02.38 | 141342 | 164029
10 | 36:27.05 | 3:30.47 | 164030 | 179826
11 | 39:57.52 | 4:50.40 | 179827 | 201616
12 | 44:48.17 | 1:48.29 | 201617 | 209745
13 | 46:36.46 | 4:38.29 | 209746 | 230624
14 | 51:15.00 | 6:21.15 | 230625 | 259214
Характеристики диапазона извлечения и сообщения об ошибках
Выбранный диапазон
Имя файла C:\CD RIP\Honolulu Playboys - Between Drinks\Honolulu Playboys - Between Drinks.wav
Пиковый уровень 100.0 %
Качество диапазона 100.0 %
CRC теста 0DFA4B77
CRC копии 0DFA4B77
Копирование... OK
Ошибок не произошло
AccurateRip: сводка
Трек 1 нет в базе данных
Трек 2 нет в базе данных
Трек 3 нет в базе данных
Трек 4 нет в базе данных
Трек 5 нет в базе данных
Трек 6 нет в базе данных
Трек 7 нет в базе данных
Трек 8 нет в базе данных
Трек 9 нет в базе данных
Трек 10 нет в базе данных
Трек 11 нет в базе данных
Трек 12 нет в базе данных
Трек 13 нет в базе данных
Трек 14 нет в базе данных
Ни одного трека нет в базе AccurateRip
Конец отчёта
 
Tau Analyzer
Приватный:
Нет (DHT включён)
Размер:
382.65 Мб (401,238,172 байт) » файлов: 12
Участники:
0 раздают, 0 качают (0 участников всего)
Внешние участники:
3 раздают, 1 качают (4 участников всего) [ Обновить ]
Никого нет на раздаче - пишите личное сообщение M0p94ok
No seeders - write personal message to M0p94ok
02:34
17
Нет комментариев. Ваш будет первым!