Поиск

(R'n'B, Pop) Vanessa Williams - The real thing - 2009, FLAC (tracks+.cue), lossless

Треклист:
Vanessa Williams - The real thing

Жанр: R'n'B, Pop
Год выпуска диска: 2009
Производитель диска: США
Аудио кодек: FLAC
Тип рипа: tracks+.cue
Битрейт аудио: lossless
Продолжительность: 48.15
Трэклист:
1. Breathless (4:49)
2. Hello like before (4:26)
3. Loving you (3:29)
4. Just friends (4:13)
5. The real thing (5:10)
6. Lazy afternoon (4:54)
7. Close to you (4:36)
8. I feel in (4:44)
9. October sky (4:25)
10. Come on strong (2:36)
11. If there were no song (4:29)
 
.CUE
REM GENRE Vocal
REM DATE 2009
REM DISCID 850B550B
REM COMMENT "ExactAudioCopy v0.99pb5"
PERFORMER "Vanessa Williams"
TITLE "The real things"
FILE "01 - Breathless.wav" WAVE
TRACK 01 AUDIO
TITLE "Breathless"
PERFORMER "Vanessa Williams"
INDEX 01 00:00:00
TRACK 02 AUDIO
TITLE "Hello like before"
PERFORMER "Vanessa Williams"
INDEX 00 04:49:33
FILE "02 - Hello like before.wav" WAVE
INDEX 01 00:00:00
TRACK 03 AUDIO
TITLE "Loving you"
PERFORMER "Vanessa Williams"
INDEX 00 04:26:29
FILE "03 - Loving you.wav" WAVE
INDEX 01 00:00:00
TRACK 04 AUDIO
TITLE "Just friends"
PERFORMER "Vanessa Williams"
INDEX 00 03:29:33
FILE "04 - Just friends.wav" WAVE
INDEX 01 00:00:00
TRACK 05 AUDIO
TITLE "The real thing"
PERFORMER "Vanessa Williams"
INDEX 00 04:13:08
FILE "05 - The real thing.wav" WAVE
INDEX 01 00:00:00
TRACK 06 AUDIO
TITLE "Lazy afternoon"
PERFORMER "Vanessa Williams"
INDEX 00 05:10:26
FILE "06 - Lazy afternoon.wav" WAVE
INDEX 01 00:00:00
TRACK 07 AUDIO
TITLE "Close to you"
PERFORMER "Vanessa Williams"
INDEX 00 04:54:38
FILE "07 - Close to you.wav" WAVE
INDEX 01 00:00:00
FILE "08 - I feel in.wav" WAVE
TRACK 08 AUDIO
TITLE "I feel in"
PERFORMER "Vanessa Williams"
INDEX 01 00:00:00
TRACK 09 AUDIO
TITLE "October sky"
PERFORMER "Vanessa Williams"
INDEX 00 04:44:08
FILE "09 - October sky.wav" WAVE
INDEX 01 00:00:00
TRACK 10 AUDIO
TITLE "Come on strong"
PERFORMER "Vanessa Williams"
INDEX 00 04:24:54
FILE "10 - Come on strong.wav" WAVE
INDEX 01 00:00:00
TRACK 11 AUDIO
TITLE "If there were no song"
PERFORMER "Vanessa Williams"
INDEX 00 02:36:00
FILE "11 - If there were no song.wav" WAVE
INDEX 01 00:00:00
 
Отчёт EAC
Exact Audio Copy V0.99 prebeta 5 from 4. May 2009
EAC extraction logfile from 2. March 2010, 14:36
Vanessa Williams / The real things
Used drive : Optiarc DVD RW AD-7201A Adapter: 0 ID: 1
Read mode : Secure
Utilize accurate stream : Yes
Defeat audio cache : Yes
Make use of C2 pointers : No
Read offset correction : 48
Overread into Lead-In and Lead-Out : No
Fill up missing offset samples with silence : Yes
Delete leading and trailing silent blocks : No
Null samples used in CRC calculations : Yes
Used interface : Installed external ASPI interface
Gap handling : Appended to previous track
Used output format : User Defined Encoder
Selected bitrate : 768 kBit/s
Quality : High
Add ID3 tag : Yes
Command line compressor : C:\Program Files\Exact Audio Copy\FLAC\FLAC.EXE
Additional command line options : -8 -V -T "ARTIST=%a" -T "TITLE=%t" -T "ALBUM=%g" -T "DATE=%y" -T "TRACKNUMBER=%n" -T "GENRE=%m" -T "COMMENT=EAC FLAC -8" %s
TOC of the extracted CD
Track | Start | Length | Start sector | End sector
---------------------------------------------------------
1 | 0:00.00 | 4:50.39 | 0 | 21788
2 | 4:50.39 | 4:28.27 | 21789 | 41915
3 | 9:18.66 | 3:33.28 | 41916 | 57918
4 | 12:52.19 | 4:17.33 | 57919 | 77226
5 | 17:09.52 | 5:12.72 | 77227 | 100698
6 | 22:22.49 | 4:56.62 | 100699 | 122960
7 | 27:19.36 | 4:36.41 | 122961 | 143701
8 | 31:56.02 | 4:47.71 | 143702 | 165297
9 | 36:43.73 | 4:28.46 | 165298 | 185443
10 | 41:12.44 | 2:39.43 | 185444 | 197411
11 | 43:52.12 | 4:29.39 | 197412 | 217625
Track 1
Filename H:\Vanessa Williams\01 - Breathless.wav
Pre-gap length 0:00:02.00
Peak level 97.5 %
Track quality 100.0 %
Test CRC 81E8880B
Copy CRC 81E8880B
Cannot be verified as accurate (confidence 8) [96DCD2B3], AccurateRip returned [ADDD2AC1]
Copy OK
Track 2
Filename H:\Vanessa Williams\02 - Hello like before.wav
Pre-gap length 0:00:01.06
Peak level 98.3 %
Track quality 100.0 %
Test CRC C9D28119
Copy CRC C9D28119
Cannot be verified as accurate (confidence 8) [2B2B473B], AccurateRip returned [618F91F0]
Copy OK
Track 3
Filename H:\Vanessa Williams\03 - Loving you.wav
Pre-gap length 0:00:01.73
Peak level 97.0 %
Track quality 100.0 %
Test CRC 8BD091BF
Copy CRC 8BD091BF
Cannot be verified as accurate (confidence 8) [41DCD392], AccurateRip returned [9F27CD03]
Copy OK
Track 4
Filename H:\Vanessa Williams\04 - Just friends.wav
Pre-gap length 0:00:03.70
Peak level 97.9 %
Track quality 100.0 %
Test CRC 9565EB01
Copy CRC 9565EB01
Cannot be verified as accurate (confidence 8) [142B29FB], AccurateRip returned [D2CA1D5B]
Copy OK
Track 5
Filename H:\Vanessa Williams\05 - The real thing.wav
Pre-gap length 0:00:04.25
Peak level 98.4 %
Track quality 100.0 %
Test CRC 8A95781E
Copy CRC 8A95781E
Cannot be verified as accurate (confidence 8) [4EF1B64B], AccurateRip returned [CBB01F9B]
Copy OK
Track 6
Filename H:\Vanessa Williams\06 - Lazy afternoon.wav
Pre-gap length 0:00:02.46
Peak level 98.7 %
Track quality 100.0 %
Test CRC 18039D90
Copy CRC 18039D90
Cannot be verified as accurate (confidence 8) [E5C74911], AccurateRip returned [914570DA]
Copy OK
Track 7
Filename H:\Vanessa Williams\07 - Close to you.wav
Pre-gap length 0:00:02.24
Peak level 98.6 %
Track quality 100.0 %
Test CRC 3080E3C1
Copy CRC 3080E3C1
Cannot be verified as accurate (confidence 8) [79FA483F], AccurateRip returned [FB4B516F]
Copy OK
Track 8
Filename H:\Vanessa Williams\08 - I feel in.wav
Peak level 98.4 %
Track quality 100.0 %
Test CRC E7CDF8E2
Copy CRC E7CDF8E2
Cannot be verified as accurate (confidence 8) [BC6A7664], AccurateRip returned [9E7A24AA]
Copy OK
Track 9
Filename H:\Vanessa Williams\09 - October sky.wav
Pre-gap length 0:00:03.63
Peak level 96.5 %
Track quality 99.9 %
Test CRC A58C9A57
Copy CRC A58C9A57
Cannot be verified as accurate (confidence 8) [1C83333F], AccurateRip returned [3AF549B1]
Copy OK
Track 10
Filename H:\Vanessa Williams\10 - Come on strong.wav
Pre-gap length 0:00:03.67
Peak level 98.4 %
Track quality 100.0 %
Test CRC A75EE7CF
Copy CRC A75EE7CF
Cannot be verified as accurate (confidence 8) [FABD6BCA], AccurateRip returned [421A876F]
Copy OK
Track 11
Filename H:\Vanessa Williams\11 - If there were no song.wav
Pre-gap length 0:00:03.43
Peak level 98.3 %
Track quality 100.0 %
Test CRC E9BEB5F3
Copy CRC E9BEB5F3
Cannot be verified as accurate (confidence 8) [56D96043], AccurateRip returned [3166A469]
Copy OK
No tracks could be verified as accurate
You may have a different pressing from the one(s) in the database
No errors occurred
End of status report
Приватный:
Нет (DHT включён)
Размер:
315.44 Мб (330,761,119 байт) » файлов: 16
Участники:
0 раздают, 0 качают (0 участников всего)
Внешние участники:
1 раздают, 0 качают (1 участников всего) [ Обновить ]
Никого нет на раздаче - пишите ЛС M0p94ok
No seeders - write PM to M0p94ok
02:33
26
Нет комментариев. Ваш будет первым!