Поиск

(Alternative R&B / Adult Contemporary R&B) Me'Shell NdegeOcello - Plantation Lullabies - 1993, FLAC (image+.cue), lossless

(Alternative R&B / Adult Contemporary R&B) Me'Shell NdegeOcello - Plantation Lullabies - 1993, FLAC (image+.cue), lossless
Треклист:
Me'Shell NdegeOcello - Plantation Lullabies
Жанр: Alternative R&B / Adult Contemporary R&B
Год выпуска диска: 1993
Производитель диска: USA
Аудио кодек: FLAC
Тип рипа: image+.cue
Битрейт аудио: lossless
Продолжительность: 0:53:15
Label: Maverick
Catalog No: 45333
Трэклист:
01. Plantation Lullabies
02. I'm Diggin' You
03. If That's Your Boyfriend
04. Shoot'n up and Gett'n High
05. Dred Loc
06. Untitled
07. Step into the Projects
08. Soul on Ice
09. Call Me
10. Outside Your Door
11. Picture Show
12. Sweet Love
13. Two Lonely Hearts
Источник рипа: Найдено в сети. Released by RunawayTrane.
 
Лог Audiockecker
AUDIOCHECKER v2.0 beta (build 457) - by Dester - opdester@freemail.hu
~~~~~~~~~~~~~~~~~~~~~~~~~~~~~~~~~~
-=== DO NOT EDIT THIS FILE! ===-
Path: ...\Me'Shell NdegeOcello - 1993 - Plantation Lullabies
1 -=- Me'Shell NdegeOcello - Plantation Lullabies.flac -=- CDDA (100%)
60061140
 
Отчёт EAC
Exact Audio Copy V0.99 prebeta 5 from 4. May 2009
EAC extraction logfile from 15. February 2010, 13:23
Me'Shell NdegeOcello / Plantation Lullabies
Used drive : Memorex 52MAXX 3252AJ1 Adapter: 1 ID: 0
Read mode : Secure
Utilize accurate stream : Yes
Defeat audio cache : Yes
Make use of C2 pointers : No
Read offset correction : 6
Overread into Lead-In and Lead-Out : No
Fill up missing offset samples with silence : Yes
Delete leading and trailing silent blocks : No
Null samples used in CRC calculations : Yes
Used interface : Installed external ASPI interface
Used output format : User Defined Encoder
Selected bitrate : 768 kBit/s
Quality : High
Add ID3 tag : No
Command line compressor : C:\Program Files (x86)\Exact Audio Copy\FLAC\FLAC.EXE
Additional command line options : -8 -A tukey(0.25) -A gauss(0.1875) -b 4096 -V -T "artist=%a" -T "title=%t" -T "album=%g" -T "date=%y" -T "tracknumber=%n" -T "genre=%m" %s
TOC of the extracted CD
Track | Start | Length | Start sector | End sector
---------------------------------------------------------
1 | 0:00.32 | 1:31.08 | 32 | 6864
2 | 1:31.40 | 4:25.25 | 6865 | 26764
3 | 5:56.65 | 4:31.22 | 26765 | 47111
4 | 10:28.12 | 4:14.03 | 47112 | 66164
5 | 14:42.15 | 4:04.47 | 66165 | 84511
6 | 18:46.62 | 1:41.43 | 84512 | 92129
7 | 20:28.30 | 3:54.57 | 92130 | 109736
8 | 24:23.12 | 5:08.20 | 109737 | 132856
9 | 29:31.32 | 4:45.68 | 132857 | 154299
10 | 34:17.25 | 5:08.22 | 154300 | 177421
11 | 39:25.47 | 4:39.00 | 177422 | 198346
12 | 44:04.47 | 4:55.03 | 198347 | 220474
13 | 48:59.50 | 4:16.40 | 220475 | 239714
Range status and errors
Selected range
Filename C:\Users\Mase\Music\BURNS\Me'Shell NdegeOcello - Plantation Lullabies.wav
Peak level 95.5 %
Range quality 100.0 %
Test CRC 418B1694
Copy CRC 418B1694
Copy OK
No errors occurred
AccurateRip summary
Track 1 accurately ripped (confidence 4) [6AEFA6DA]
Track 2 accurately ripped (confidence 4) [F3618C7A]
Track 3 accurately ripped (confidence 4) [924B9B22]
Track 4 accurately ripped (confidence 4) [B45BCA1E]
Track 5 accurately ripped (confidence 4) [33621ED4]
Track 6 accurately ripped (confidence 4) [8388D5DE]
Track 7 accurately ripped (confidence 4) [1017A945]
Track 8 accurately ripped (confidence 4) [8D5D04C5]
Track 9 accurately ripped (confidence 4) [F0E4C83B]
Track 10 accurately ripped (confidence 4) [CBA14D23]
Track 11 accurately ripped (confidence 4) [0705C25D]
Track 12 accurately ripped (confidence 4) [63DA3F6D]
Track 13 accurately ripped (confidence 4) [E1A03CA7]
All tracks accurately ripped
End of status report
Приватный:
Нет (DHT включён)
Размер:
359.47 Мб (376,933,893 байт) » файлов: 14
Участники:
0 раздают, 0 качают (0 участников всего)
Внешние участники:
7 раздают, 2 качают (9 участников всего) [ Обновить ]
Есть вопросы - пишите личное сообщение пользователю M0p94ok.
02:34
32
Нет комментариев. Ваш будет первым!