Поиск

(Rhythm'n'Blues,Soul/Rhythmic Soul/Classic Motown) Diana Ross & The Supremes - The №1's - 2007, FLAC (image+.cue), lossless

(Rhythm'n'Blues,Soul/Rhythmic Soul/Classic Motown) Diana Ross & The Supremes - The №1's - 2007, FLAC (image+.cue), lossless
Треклист:
Diana Ross & The Supremes - The №1's
Жанр: Rhythm'n'Blues,Soul/Rhythmic Soul/Classic Motown
Год выпуска диска: 2007
Производитель диска: Россия. Юниверсал Мьюзик
Аудио кодек: FLAC
Тип рипа: image+.cue + covers
Битрейт аудио: lossless
Продолжительность: 1ч.18м.14с
 
Трэклист:
1. Where Did Our Love Go "The Supremes"
2. Baby Love "The Supremes"
3. Come See About Me "The Supremes"
4. Stop! In The Name Of Love "The Supremes"
5. Back In My Arms Baby "The Supremes"
6. You Can't Hurry Love "The Supremes"
7. You Keep Me Hangin' On "The Supremes"
8. Love Is Here And Now You're Gone "The Supremes"
9. The Happening "The Supremes"
10. Reflections "The Supremes", Дайана Росс
11. Love Child "The Supremes", Дайана Росс
12. I'm Gonna Make You Love Me "The Supremes", Дайана Росс, "The Temptations"
13. Someday We'll Be Together "The Supremes", Дайана Росс
14. Stoned Love "The Supremes"
15. Ain't No Mountain High Enough Дайана Росс
16. I'm Still Waiting
17. Touch Me In The Morning Дайана Росс
18. The Theme From Mahogany (Do You Know Where You're Going To?) Дайана Росс
19. Love Hangover Дайана Росс
20. Upside Down Дайана Росс
21. I'm Coming Out Дайана Росс
22. Endless Love Дайана Росс, Лайонел Ричи
23. The Boss Дайана Росс
24. You Keep Me Hangin' On (Almighty Remix) (Bonus Track) Дайана Росс
 
Log EAC
Exact Audio Copy V0.99 prebeta 5 from 4. May 2009
Отчёт EAC об извлечении, выполненном 18. февраля 2010, 23:02
Diana Ross & The Supremes / The No. 1'S
Дисковод: _NEC DVD_RW ND-3540A Adapter: 0 ID: 1
Режим чтения : Достоверность
Использование точного потока : Да
Отключение кэша аудио : Да
Использование указателей C2 : Нет
Коррекция смещения при чтении : 48
Способность читать области Lead-in и Lead-out : Нет
Заполнение пропущенных сэмплов тишиной : Да
Удаление блоков с тишиной в начале и конце : Нет
При вычислениях CRC использовались нулевые сэмплы : Да
Интерфейс : Установленный внешний ASPI-интерфейс
Выходной формат : Пользовательский кодировщик
Выбранный битрейт : 768 kBit/s
Качество : Высокий
Добавление ID3-тэга : Нет
Утилита сжатия : C:\Program Files\Exact Audio Copy\FLAC\FLAC.EXE
Дополнительные параметры : -6 -V -T "ARTIST=%a" -T "TITLE=%t" -T "ALBUM=%g" -T "DATE=%y" -T "TRACKNUMBER=%n" -T "GENRE=%m" -T "COMMENT=%e" %s -o %d
TOC извлечённого CD
Трек | Старт | Длительность | Начальный сектор | Конечный сектор
---------------------------------------------------------------------
1 | 0:00.00 | 2:32.62 | 0 | 11461
2 | 2:32.62 | 2:37.25 | 11462 | 23261
3 | 5:10.12 | 2:39.55 | 23262 | 35241
4 | 7:49.67 | 2:54.13 | 35242 | 48304
5 | 10:44.05 | 2:50.67 | 48305 | 61121
6 | 13:34.72 | 2:46.36 | 61122 | 73607
7 | 16:21.33 | 2:42.12 | 73608 | 85769
8 | 19:03.45 | 2:48.06 | 85770 | 98375
9 | 21:51.51 | 2:37.63 | 98376 | 110213
10 | 24:29.39 | 2:50.66 | 110214 | 123029
11 | 27:20.30 | 2:51.63 | 123030 | 135917
12 | 30:12.18 | 2:56.18 | 135918 | 149135
13 | 33:08.36 | 3:08.06 | 149136 | 163241
14 | 36:16.42 | 3:27.69 | 163242 | 178835
15 | 39:44.36 | 2:56.66 | 178836 | 192101
16 | 42:41.27 | 3:32.11 | 192102 | 208012
17 | 46:13.38 | 3:26.30 | 208013 | 223492
18 | 49:39.68 | 3:24.04 | 223493 | 238796
19 | 53:03.72 | 3:47.38 | 238797 | 255859
20 | 56:51.35 | 4:05.49 | 255860 | 274283
21 | 60:57.09 | 3:47.27 | 274284 | 291335
22 | 64:44.36 | 5:22.69 | 291336 | 315554
23 | 70:07.30 | 4:29.36 | 315555 | 335765
24 | 74:36.66 | 3:49.42 | 335766 | 352982
Характеристики диапазона извлечения и сообщения об ошибках
Выбранный диапазон
Имя файла M:\раздача\Diana Ross & The Supremes - The №1's\Diana Ross & The Supremes - The No. 1'S.wav
Пиковый уровень 100.0 %
Качество диапазона 100.0 %
CRC теста 7873B8B1
CRC копии 7873B8B1
Копирование... OK
Ошибок не произошло
AccurateRip: сводка
Трек 1 нет в базе данных
Трек 2 нет в базе данных
Трек 3 нет в базе данных
Трек 4 нет в базе данных
Трек 5 нет в базе данных
Трек 6 нет в базе данных
Трек 7 нет в базе данных
Трек 8 нет в базе данных
Трек 9 нет в базе данных
Трек 10 нет в базе данных
Трек 11 нет в базе данных
Трек 12 нет в базе данных
Трек 13 нет в базе данных
Трек 14 нет в базе данных
Трек 15 нет в базе данных
Трек 16 нет в базе данных
Трек 17 нет в базе данных
Трек 18 нет в базе данных
Трек 19 нет в базе данных
Трек 20 нет в базе данных
Трек 21 нет в базе данных
Трек 22 нет в базе данных
Трек 23 нет в базе данных
Трек 24 нет в базе данных
Ни одного трека нет в базе AccurateRip
Конец отчёта
 
Доп. информация + Cover back:
Ремастированное переиздание сборника 2003 года, который содержит как практически все хиты #1 как группы "The Supremes" с Diana Ross в качестве одной из вокалисток, так и хиты из соло-карьеры легендарной певицы. В этот сборник вошли песни, которые уже несколько десятков лет не теряют своей актуальности - "Baby Love", "I'm Still Waiting", "Chain Reaction", "Ain't No Mountain High Enough", "Stop! In the Name Оf Love" и многие другие.
для желающих в mp3 здесь :
Приватный:
Нет (DHT включён)
Размер:
512.54 Мб (537,435,503 байт) » файлов: 8
Участники:
0 раздают, 0 качают (0 участников всего)
Внешние участники:
2 раздают, 1 качают (3 участников всего) [ Обновить ]
Нет сидеров - пишите личное сообщение M0p94ok. Не нравятся торренты? Участники группы Pro-jazz Club могут заказать прямую ссылку на скачивание из облака.
No seeders - write a personal message to M0p94ok. Don't like torrents? Members of Pro-jazz Club group can order a direct download link from the cloud.
02:35
29
Нет комментариев. Ваш будет первым!