Поиск

(Funk, Black Rock, Psychedelic Soul) [CD] Black Merda - Black Merda 1970 - 2006, FLAC (tracks+.cue), lossless

(Funk, Black Rock, Psychedelic Soul) [CD] Black Merda - Black Merda 1970 - 2006, FLAC (tracks+.cue), lossless
Треклист:
Black Merda
Жанр: Funk, Black Rock, Psychedelic Soul
Носитель: CD
Страна-производитель диска (релиза): Russia
Год издания: 2006
Издатель (лейбл): Lilith Records
Номер по каталогу: LR111
Страна исполнителя (группы): USA
Аудиокодек: FLAC (*.flac)
Тип рипа: tracks+.cue
Битрейт аудио: lossless
Продолжительность: 00:35:55
Источник (релизер): Nelwizard
Наличие сканов в содержимом раздачи: да
Треклист:
01. Prophet 2:54
02. Think of Me 2:33
03. Cynthy-Ruth 3:06
04. Over and Over 5:33
05. Ashamed 3:52
06. Reality 2:01
07. Windsong 4:14
08. Good Luck 3:46
09. That's the Way It Goes 3:16
10. I Don't Want to Die 3:52
11. Set Me Free 0:43
 
Лог создания рипа
Exact Audio Copy V1.0 beta 3 from 29. August 2011
EAC extraction logfile from 23. January 2014, 9:12
Black Merda / Black Merda
Used drive : HL-DT-STDVD-RAM GSA-H58N Adapter: 0 ID: 0
Read mode : Secure
Utilize accurate stream : Yes
Defeat audio cache : Yes
Make use of C2 pointers : No
Read offset correction : 102
Overread into Lead-In and Lead-Out : No
Fill up missing offset samples with silence : Yes
Delete leading and trailing silent blocks : No
Null samples used in CRC calculations : Yes
Used interface : Installed external ASPI interface
Gap handling : Appended to previous track
Used output format : User Defined Encoder
Selected bitrate : 1024 kBit/s
Quality : High
Add ID3 tag : No
Command line compressor : C:\Arquivos de programas\Exact Audio Copy\Flac\flac.exe
Additional command line options : -8 -V -T "ARTIST=%artist%" -T "TITLE=%title%" -T "ALBUM=%albumtitle%" -T "DATE=%year%" -T "TRACKNUMBER=%tracknr%" -T "GENRE=%genre%" -T "PERFORMER=%albuminterpret%" -T "COMPOSER=%composer%" %haslyrics%--tag-from-file=LYRICS="%lyricsfile%"%haslyrics% -T "ALBUMARTIST=%albumartist%" -T "DISCNUMBER=%cdnumber%" -T "TOTALDISCS=%totalcds%" -T "TOTALTRACKS=%numtracks%" -T "COMMENT=%comment%" %source% -o %dest%
TOC of the extracted CD
Track | Start | Length | Start sector | End sector
---------------------------------------------------------
1 | 0:00.00 | 2:54.12 | 0 | 13061
2 | 2:54.12 | 2:33.30 | 13062 | 24566
3 | 5:27.42 | 3:06.46 | 24567 | 38562
4 | 8:34.13 | 5:33.28 | 38563 | 63565
5 | 14:07.41 | 3:52.20 | 63566 | 80985
6 | 17:59.61 | 2:01.03 | 80986 | 90063
7 | 20:00.64 | 4:14.22 | 90064 | 109135
8 | 24:15.11 | 3:46.45 | 109136 | 126130
9 | 28:01.56 | 3:16.58 | 126131 | 140888
10 | 31:18.39 | 3:52.62 | 140889 | 158350
11 | 35:11.26 | 0:43.28 | 158351 | 161603
Track 1
Filename C:\Documents and Settings\Nelson\Meus documentos\My EAC\(01) Prophet - Black Merda.wav
Pre-gap length 0:00:02.00
Peak level 97.7 %
Extraction speed 1.0 X
Track quality 99.8 %
Test CRC 085502C8
Copy CRC 085502C8
Accurately ripped (confidence 5) [D4396FEB] (AR v2)
Copy OK
Track 2
Filename C:\Documents and Settings\Nelson\Meus documentos\My EAC\(02) Think of Me - Black Merda.wav
Peak level 97.7 %
Extraction speed 1.5 X
Track quality 100.0 %
Test CRC 082CF99D
Copy CRC 082CF99D
Accurately ripped (confidence 5) [117E71E0] (AR v2)
Copy OK
Track 3
Filename C:\Documents and Settings\Nelson\Meus documentos\My EAC\(03) Cynthy-Ruth - Black Merda.wav
Peak level 97.7 %
Extraction speed 1.7 X
Track quality 100.0 %
Test CRC F6CE6388
Copy CRC F6CE6388
Accurately ripped (confidence 5) [6AFFC576] (AR v2)
Copy OK
Track 4
Filename C:\Documents and Settings\Nelson\Meus documentos\My EAC\(04) Over and Over - Black Merda.wav
Peak level 97.7 %
Extraction speed 2.0 X
Track quality 100.0 %
Test CRC 86C3CD50
Copy CRC 86C3CD50
Accurately ripped (confidence 5) [251FDD09] (AR v2)
Copy OK
Track 5
Filename C:\Documents and Settings\Nelson\Meus documentos\My EAC\(05) Ashamed - Black Merda.wav
Peak level 97.7 %
Extraction speed 2.1 X
Track quality 100.0 %
Test CRC ABCB0F04
Copy CRC ABCB0F04
Accurately ripped (confidence 5) [927E95EF] (AR v2)
Copy OK
Track 6
Filename C:\Documents and Settings\Nelson\Meus documentos\My EAC\(06) Reality - Black Merda.wav
Peak level 97.7 %
Extraction speed 1.9 X
Track quality 100.0 %
Test CRC DDB97D2C
Copy CRC DDB97D2C
Accurately ripped (confidence 5) [D6A8CFF1] (AR v2)
Copy OK
Track 7
Filename C:\Documents and Settings\Nelson\Meus documentos\My EAC\(07) Windsong - Black Merda.wav
Peak level 97.7 %
Extraction speed 2.0 X
Track quality 99.9 %
Test CRC C3BABEEC
Copy CRC C3BABEEC
Accurately ripped (confidence 5) [C3ACFC60] (AR v2)
Copy OK
Track 8
Filename C:\Documents and Settings\Nelson\Meus documentos\My EAC\(08) Good Luck - Black Merda.wav
Peak level 97.7 %
Extraction speed 2.4 X
Track quality 100.0 %
Test CRC CA08D28B
Copy CRC CA08D28B
Accurately ripped (confidence 5) [82224B36] (AR v2)
Copy OK
Track 9
Filename C:\Documents and Settings\Nelson\Meus documentos\My EAC\(09) That's the Way It Goes - Black Merda.wav
Peak level 97.7 %
Extraction speed 2.4 X
Track quality 100.0 %
Test CRC 026DFD06
Copy CRC 026DFD06
Accurately ripped (confidence 5) [D92441D9] (AR v2)
Copy OK
Track 10
Filename C:\Documents and Settings\Nelson\Meus documentos\My EAC\(10) I Don't Want to Die - Black Merda.wav
Peak level 97.7 %
Extraction speed 2.6 X
Track quality 100.0 %
Test CRC AEBE7D2F
Copy CRC AEBE7D2F
Accurately ripped (confidence 5) [97FA6AC0] (AR v2)
Copy OK
Track 11
Filename C:\Documents and Settings\Nelson\Meus documentos\My EAC\(11) Set Me Free - Black Merda.wav
Peak level 97.7 %
Extraction speed 1.6 X
Track quality 100.0 %
Test CRC CDEC83E8
Copy CRC CDEC83E8
Accurately ripped (confidence 5) [A6C37BE4] (AR v2)
Copy OK
All tracks accurately ripped
No errors occurred
End of status report
---- CUETools DB Plugin V2.1.3
[CTDB TOCID: 5pak.dHMPoV2VDAHwItmUY0yrf4-] found, Submit result: 5pak.dHMPoV2VDAHwItmUY0yrf4- has been confirmed
[c4f414d3] (1/1) Accurately ripped
==== Log checksum 69B551290AC1FF4AE7DB34B24ACDF20FC788AA0DB8D90CC0516E954F216D8572 ====
 
Содержание индексной карты (.CUE)
REM GENRE "Psychedelic Rock"
REM DATE 1967
REM DISCID 89086A0B
REM COMMENT "ExactAudioCopy v1.0b3"
PERFORMER "Black Merda"
TITLE "Black Merda"
FILE "(01) Prophet - Black Merda.wav" WAVE
TRACK 01 AUDIO
TITLE "Prophet"
PERFORMER "Black Merda"
INDEX 01 00:00:00
FILE "(02) Think of Me - Black Merda.wav" WAVE
TRACK 02 AUDIO
TITLE "Think of Me"
PERFORMER "Black Merda"
INDEX 01 00:00:00
FILE "(03) Cynthy-Ruth - Black Merda.wav" WAVE
TRACK 03 AUDIO
TITLE "Cynthy-Ruth"
PERFORMER "Black Merda"
INDEX 01 00:00:00
FILE "(04) Over and Over - Black Merda.wav" WAVE
TRACK 04 AUDIO
TITLE "Over and Over"
PERFORMER "Black Merda"
INDEX 01 00:00:00
FILE "(05) Ashamed - Black Merda.wav" WAVE
TRACK 05 AUDIO
TITLE "Ashamed"
PERFORMER "Black Merda"
INDEX 01 00:00:00
FILE "(06) Reality - Black Merda.wav" WAVE
TRACK 06 AUDIO
TITLE "Reality"
PERFORMER "Black Merda"
INDEX 01 00:00:00
FILE "(07) Windsong - Black Merda.wav" WAVE
TRACK 07 AUDIO
TITLE "Windsong"
PERFORMER "Black Merda"
INDEX 01 00:00:00
FILE "(08) Good Luck - Black Merda.wav" WAVE
TRACK 08 AUDIO
TITLE "Good Luck"
PERFORMER "Black Merda"
INDEX 01 00:00:00
FILE "(09) That's the Way It Goes - Black Merda.wav" WAVE
TRACK 09 AUDIO
TITLE "That's the Way It Goes"
PERFORMER "Black Merda"
INDEX 01 00:00:00
FILE "(10) I Don't Want to Die - Black Merda.wav" WAVE
TRACK 10 AUDIO
TITLE "I Don't Want to Die"
PERFORMER "Black Merda"
INDEX 01 00:00:00
FILE "(11) Set Me Free - Black Merda.wav" WAVE
TRACK 11 AUDIO
TITLE "Set Me Free"
PERFORMER "Black Merda"
INDEX 01 00:00:00
 
Об альбоме (сборнике)
 
Состав
Bass – Veesee L. Veasey
Drums – Tyrone Hite
Guitars – Anthony Hawkins, Charles Hawkins
Приватный:
Нет (DHT включён)
Размер:
226.49 Мб (237,488,821 байт) » файлов: 22
Участники:
0 раздают, 0 качают (0 участников всего)
Внешние участники:
3 раздают, 1 качают (4 участников всего) [ Обновить ]
Есть вопросы - пишите личное сообщение пользователю M0p94ok.
04:10
73
Нет комментариев. Ваш будет первым!