Поиск

(Black Rock, Psychfunk) [CD] Black Merda - Force of Nature - 2009, FLAC (tracks+.cue), lossless

(Black Rock, Psychfunk) [CD] Black Merda - Force of Nature - 2009, FLAC (tracks+.cue), lossless
Треклист:
Black Merda / Force of Nature
Жанр: Black Rock, Psychfunk
Носитель: CD
Год издания: 2009
Издатель (лейбл): Vampi Soul
Страна исполнителя (группы): USA
Аудиокодек: FLAC (*.flac)
Тип рипа: tracks+.cue
Битрейт аудио: lossless
Продолжительность: 00:54:44
Источник (релизер): интернет
Наличие сканов в содержимом раздачи: нет
Треклист:
01. Can't Get Enough of the Funk
02. Let Go
03. Maintain
04. Stop the War
05. 18 for 20 year
06. Miss Hawkins' House
07. My Inspiration
08. The Solution
09. Take a Little Time
10. I'm Not Coming Back
11. Get On The Same Road
12. Beautiful Thing
youtube.com
 
Лог создания рипа
X Lossless Decoder version 20100918 (122.1)
XLD extraction logfile from 2010-09-21 19:45:59 -0700
Black Merda / Force Of Nature
Used drive : MATSHITA DVD-R UJ-867 (revision HB01)
Use cdparanoia mode : YES (CDParanoia III 10.2 engine)
Disable audio cache : OK for the drive with cache less than 2750KB
Make use of C2 pointers : NO
Read offset correction : 102
Max retry count : 100
Gap status : Analyzed, Appended (except HTOA)
TOC of the extracted CD
Track | Start | Length | Start sector | End sector
---------------------------------------------------------
1 | 00:00:00 | 03:20:40 | 0 | 15039
2 | 03:20:40 | 03:29:03 | 15040 | 30717
3 | 06:49:43 | 04:51:55 | 30718 | 52597
4 | 11:41:23 | 04:07:56 | 52598 | 71178
5 | 15:49:04 | 05:10:52 | 71179 | 94480
6 | 20:59:56 | 05:30:20 | 94481 | 119250
7 | 26:30:01 | 05:18:68 | 119251 | 143168
8 | 31:48:69 | 04:17:29 | 143169 | 162472
9 | 36:06:23 | 03:58:36 | 162473 | 180358
10 | 40:04:59 | 04:42:68 | 180359 | 201576
11 | 44:47:52 | 04:39:64 | 201577 | 222565
12 | 49:27:41 | 05:16:05 | 222566 | 246270
All Tracks
Album gain : -8.28 dB
Peak : 0.989044
Track 01
Filename : /Volumes/GAV/What Rips/01 - Can't Get Enough Of The Funk.flac
Pre-gap length : 00:02:00
Track gain : -8.11 dB
Peak : 0.989044
CRC32 hash (test run) : B30223BE
CRC32 hash : B30223BE
CRC32 hash (skip zero) : 37DEACF0
AccurateRip signature : A74DCBC0
->Accurately ripped! (confidence 1)
Statistics
Read error : 0
Skipped (treated as error) : 0
Edge jitter error (maybe fixed) : 0
Atom jitter error (maybe fixed) : 0
Drift error (maybe fixed) : 0
Dropped bytes error (maybe fixed) : 0
Duplicated bytes error (maybe fixed) : 0
Inconsistency in error sectors : 0
Track 02
Filename : /Volumes/GAV/What Rips/02 - Let Go.flac
Pre-gap length : 00:01:69
Track gain : -9.52 dB
Peak : 0.989044
CRC32 hash (test run) : DC340738
CRC32 hash : DC340738
CRC32 hash (skip zero) : 5EE334BA
AccurateRip signature : C7ECEE69
->Accurately ripped! (confidence 1)
Statistics
Read error : 0
Skipped (treated as error) : 0
Edge jitter error (maybe fixed) : 0
Atom jitter error (maybe fixed) : 0
Drift error (maybe fixed) : 0
Dropped bytes error (maybe fixed) : 0
Duplicated bytes error (maybe fixed) : 0
Inconsistency in error sectors : 0
Track 03
Filename : /Volumes/GAV/What Rips/03 - Maintain.flac
Pre-gap length : 00:02:00
Track gain : -8.21 dB
Peak : 0.989044
CRC32 hash (test run) : 0C1987D3
CRC32 hash : 0C1987D3
CRC32 hash (skip zero) : 6AA8F9C4
AccurateRip signature : DF4A1CB3
->Accurately ripped! (confidence 1)
Statistics
Read error : 0
Skipped (treated as error) : 0
Edge jitter error (maybe fixed) : 0
Atom jitter error (maybe fixed) : 0
Drift error (maybe fixed) : 0
Dropped bytes error (maybe fixed) : 0
Duplicated bytes error (maybe fixed) : 0
Inconsistency in error sectors : 0
Track 04
Filename : /Volumes/GAV/What Rips/04 - Stop The War.flac
Pre-gap length : 00:01:71
Track gain : -8.34 dB
Peak : 0.989044
CRC32 hash (test run) : C4E67FF1
CRC32 hash : C4E67FF1
CRC32 hash (skip zero) : 911EC478
AccurateRip signature : 4C51FC5C
->Accurately ripped! (confidence 1)
Statistics
Read error : 0
Skipped (treated as error) : 0
Edge jitter error (maybe fixed) : 0
Atom jitter error (maybe fixed) : 0
Drift error (maybe fixed) : 0
Dropped bytes error (maybe fixed) : 0
Duplicated bytes error (maybe fixed) : 0
Inconsistency in error sectors : 0
Track 05
Filename : /Volumes/GAV/What Rips/05 - 18 For 20 Year.flac
Pre-gap length : 00:01:68
Track gain : -8.93 dB
Peak : 0.989044
CRC32 hash (test run) : 0DCA1033
CRC32 hash : 0DCA1033
CRC32 hash (skip zero) : AD66E216
AccurateRip signature : D10A1BDD
->Accurately ripped! (confidence 1)
Statistics
Read error : 0
Skipped (treated as error) : 0
Edge jitter error (maybe fixed) : 0
Atom jitter error (maybe fixed) : 0
Drift error (maybe fixed) : 0
Dropped bytes error (maybe fixed) : 0
Duplicated bytes error (maybe fixed) : 0
Inconsistency in error sectors : 0
Track 06
Filename : /Volumes/GAV/What Rips/06 - Miss.Hawkins' House.flac
Pre-gap length : 00:01:70
Track gain : -9.05 dB
Peak : 0.989044
CRC32 hash (test run) : 0D1D87C2
CRC32 hash : 0D1D87C2
CRC32 hash (skip zero) : 36A41F06
AccurateRip signature : D02CECE0
->Accurately ripped! (confidence 1)
Statistics
Read error : 0
Skipped (treated as error) : 0
Edge jitter error (maybe fixed) : 0
Atom jitter error (maybe fixed) : 0
Drift error (maybe fixed) : 0
Dropped bytes error (maybe fixed) : 0
Duplicated bytes error (maybe fixed) : 0
Inconsistency in error sectors : 0
Track 07
Filename : /Volumes/GAV/What Rips/07 - My Inspiration.flac
Pre-gap length : 00:01:65
Track gain : -6.50 dB
Peak : 0.989044
CRC32 hash (test run) : FDFC3884
CRC32 hash : FDFC3884
CRC32 hash (skip zero) : 4D1A69DC
AccurateRip signature : 146BF860
->Accurately ripped! (confidence 1)
Statistics
Read error : 0
Skipped (treated as error) : 0
Edge jitter error (maybe fixed) : 0
Atom jitter error (maybe fixed) : 0
Drift error (maybe fixed) : 0
Dropped bytes error (maybe fixed) : 0
Duplicated bytes error (maybe fixed) : 0
Inconsistency in error sectors : 0
Track 08
Filename : /Volumes/GAV/What Rips/08 - The Solution.flac
Pre-gap length : 00:01:67
Track gain : -8.66 dB
Peak : 0.989044
CRC32 hash (test run) : 52F2BE39
CRC32 hash : 52F2BE39
CRC32 hash (skip zero) : 958D946A
AccurateRip signature : 1E15FECB
->Accurately ripped! (confidence 1)
Statistics
Read error : 0
Skipped (treated as error) : 0
Edge jitter error (maybe fixed) : 0
Atom jitter error (maybe fixed) : 0
Drift error (maybe fixed) : 0
Dropped bytes error (maybe fixed) : 0
Duplicated bytes error (maybe fixed) : 0
Inconsistency in error sectors : 0
Track 09
Filename : /Volumes/GAV/What Rips/09 - Take a Little Time.flac
Pre-gap length : 00:01:65
Track gain : -8.41 dB
Peak : 0.989044
CRC32 hash (test run) : 455B77DF
CRC32 hash : 455B77DF
CRC32 hash (skip zero) : 32064CE1
AccurateRip signature : 056CEC7B
->Accurately ripped! (confidence 1)
Statistics
Read error : 0
Skipped (treated as error) : 0
Edge jitter error (maybe fixed) : 0
Atom jitter error (maybe fixed) : 0
Drift error (maybe fixed) : 0
Dropped bytes error (maybe fixed) : 0
Duplicated bytes error (maybe fixed) : 0
Inconsistency in error sectors : 0
Track 10
Filename : /Volumes/GAV/What Rips/10 - I'm Not Coming Back.flac
Pre-gap length : 00:01:64
Track gain : -7.28 dB
Peak : 0.989044
CRC32 hash (test run) : F3019A7B
CRC32 hash : F3019A7B
CRC32 hash (skip zero) : E805045B
AccurateRip signature : 6F5A8DF9
->Accurately ripped! (confidence 1)
Statistics
Read error : 0
Skipped (treated as error) : 0
Edge jitter error (maybe fixed) : 0
Atom jitter error (maybe fixed) : 0
Drift error (maybe fixed) : 0
Dropped bytes error (maybe fixed) : 0
Duplicated bytes error (maybe fixed) : 0
Inconsistency in error sectors : 0
Track 11
Filename : /Volumes/GAV/What Rips/11 - Get On The Same Road.flac
Pre-gap length : 00:01:66
Track gain : -7.86 dB
Peak : 0.989044
CRC32 hash (test run) : 494F9D75
CRC32 hash : 494F9D75
CRC32 hash (skip zero) : 79E229A5
AccurateRip signature : 6A0302FC
->Accurately ripped! (confidence 1)
Statistics
Read error : 0
Skipped (treated as error) : 0
Edge jitter error (maybe fixed) : 0
Atom jitter error (maybe fixed) : 0
Drift error (maybe fixed) : 0
Dropped bytes error (maybe fixed) : 0
Duplicated bytes error (maybe fixed) : 0
Inconsistency in error sectors : 0
Track 12
Filename : /Volumes/GAV/What Rips/12 - Beautiful Thing.flac
Pre-gap length : 00:01:72
Track gain : -7.23 dB
Peak : 0.989044
CRC32 hash (test run) : DD3DA5E4
CRC32 hash : DD3DA5E4
CRC32 hash (skip zero) : 7DEC83B9
AccurateRip signature : 3545C758
->Accurately ripped! (confidence 1)
Statistics
Read error : 0
Skipped (treated as error) : 0
Edge jitter error (maybe fixed) : 0
Atom jitter error (maybe fixed) : 0
Drift error (maybe fixed) : 0
Dropped bytes error (maybe fixed) : 0
Duplicated bytes error (maybe fixed) : 0
Inconsistency in error sectors : 0
No errors occurred
End of status report
 
Содержание индексной карты (.CUE)
TITLE "Force Of Nature"
PERFORMER "Black Merda"
REM GENRE "Rock"
REM DATE 2009
REM DISCNUMBER 1
REM TOTALDISCS 1
REM DISCID 9B0CD30C
FILE "01 - Can't Get Enough Of The Funk.wav" WAVE
TRACK 01 AUDIO
TITLE "Can't Get Enough Of The Funk"
SONGWRITER "Light In The Attic Records"
ISRC ES8590800017
INDEX 01 00:00:00
TRACK 02 AUDIO
TITLE "Let Go"
SONGWRITER "Light In The Attic Records"
ISRC ES8590800018
INDEX 00 03:18:46
FILE "02 - Let Go.wav" WAVE
INDEX 01 00:00:00
TRACK 03 AUDIO
TITLE "Maintain"
SONGWRITER "Light In The Attic Records"
ISRC ES8590800019
INDEX 00 03:27:03
FILE "03 - Maintain.wav" WAVE
INDEX 01 00:00:00
TRACK 04 AUDIO
TITLE "Stop The War"
SONGWRITER "Light In The Attic Records"
ISRC ES8590800020
INDEX 00 04:49:59
FILE "04 - Stop The War.wav" WAVE
INDEX 01 00:00:00
TRACK 05 AUDIO
TITLE "18 For 20 Year"
SONGWRITER "Light In The Attic Records"
ISRC ES8590800021
INDEX 00 04:05:63
FILE "05 - 18 For 20 Year.wav" WAVE
INDEX 01 00:00:00
TRACK 06 AUDIO
TITLE "Miss.Hawkins' House"
SONGWRITER "Light In The Attic Records"
ISRC ES8590800022
INDEX 00 05:08:57
FILE "06 - Miss.Hawkins' House.wav" WAVE
INDEX 01 00:00:00
TRACK 07 AUDIO
TITLE "My Inspiration"
SONGWRITER "Light In The Attic Records"
ISRC ES8590800023
INDEX 00 05:28:30
FILE "07 - My Inspiration.wav" WAVE
INDEX 01 00:00:00
TRACK 08 AUDIO
TITLE "The Solution"
SONGWRITER "Light In The Attic Records"
ISRC ES8590800024
INDEX 00 05:17:01
FILE "08 - The Solution.wav" WAVE
INDEX 01 00:00:00
TRACK 09 AUDIO
TITLE "Take a Little Time"
SONGWRITER "Light In The Attic Records"
ISRC ES8590800025
INDEX 00 04:15:39
FILE "09 - Take a Little Time.wav" WAVE
INDEX 01 00:00:00
TRACK 10 AUDIO
TITLE "I'm Not Coming Back"
SONGWRITER "Light In The Attic Records"
ISRC ES8590800026
INDEX 00 03:56:47
FILE "10 - I'm Not Coming Back.wav" WAVE
INDEX 01 00:00:00
TRACK 11 AUDIO
TITLE "Get On The Same Road"
SONGWRITER "Light In The Attic Records"
ISRC ES8590800027
INDEX 00 04:41:02
FILE "11 - Get On The Same Road.wav" WAVE
INDEX 01 00:00:00
TRACK 12 AUDIO
TITLE "Beautiful Thing"
SONGWRITER "Light In The Attic Records"
ISRC ES8590800028
INDEX 00 04:37:67
FILE "12 - Beautiful Thing.wav" WAVE
INDEX 01 00:00:00
 
Об альбоме (сборнике)
 
Состав
Anthony Hawkins - Guitar, Vocals
Charles Hawkins - Guitar, Keyboards, Vocals
VC L. Veasey - Bass, Vocals
Terry 'Thunder' Hughley - Drums
Kenny Tudrick - Drums
Bobby Smith - Congas
Robert Jones - Keyboards
Приватный:
Нет (DHT включён)
Размер:
368.23 Мб (386,113,194 байт) » файлов: 16
Участники:
0 раздают, 0 качают (0 участников всего)
Внешние участники:
5 раздают, 2 качают (7 участников всего) [ Обновить ]
No seeders - write a personal message to user M0p94ok. Нет сидеров - пишите личное сообщение пользователю M0p94ok.
04:11
57
Нет комментариев. Ваш будет первым!