Вы используете незарегистрированную версию компонента "Вкладки"!

Поиск

(Free Noise) Otomo Yoshihide - Core Anode - 2008, FLAC (tracks+.cue) lossless

(Free Noise) Otomo Yoshihide - Core Anode - 2008, FLAC (tracks+.cue) lossless
Треклист:
Otomo Yoshihide / Core Anode
Жанр: Free Noise
Страна-производитель диска: Япония
Год издания диска: 2008
Издатель (лейбл): Meenna
Номер по каталогу: meenna-332
Страна: Япония, Дания, Великобритания, Италия, США
Аудио кодек: FLAC (*.flac)
Тип рипа: tracks+.cue
Битрейт аудио: lossless
Продолжительность: 1:10:05
Источник (релизер): вот.сиди (CptInsect)
Наличие сканов в содержимом раздачи: нет
Треклист:
1. 19th September 2002, Kid Ailack Art Hall, Tokyo (20:41)
2. 14th July 2006, Stubnitz, Copenhagen (27:00)
3. 15th December 2006, ICA Theatre, London (22:22)
 
Лог создания рипа
Exact Audio Copy V1.0 beta 1 from 15. November 2010
EAC extraction logfile from 9. April 2011, 14:11
大友良英 / Core Anode
Used drive : TSSTcorpCDDVDW SH-S223B Adapter: 3 ID: 0
Read mode : Secure
Utilize accurate stream : Yes
Defeat audio cache : Yes
Make use of C2 pointers : No
Read offset correction : 6
Overread into Lead-In and Lead-Out : No
Fill up missing offset samples with silence : Yes
Delete leading and trailing silent blocks : No
Null samples used in CRC calculations : Yes
Used interface : Installed external ASPI interface
Gap handling : Appended to previous track
Used output format : User Defined Encoder
Selected bitrate : 896 kBit/s
Quality : High
Add ID3 tag : No
Command line compressor : C:\Program Files\Exact Audio Copy\Flac\flac.exe
Additional command line options : -V -8 -T "artist=%a" -T "title=%t" -T "album=%g" -T "date=%y" -T "tracknumber=%n" -T "genre=%m" %s
TOC of the extracted CD
Track | Start | Length | Start sector | End sector
---------------------------------------------------------
1 | 0:00.00 | 20:41.59 | 0 | 93133
2 | 20:41.59 | 27:00.11 | 93134 | 214644
3 | 47:41.70 | 22:22.68 | 214645 | 315362
Track 1
Filename C:\EACrips\大友良英 - 2008 - Core Anode\01 - 19th September 2002, Kid Ailack Art Hall, Tokyo.wav
Pre-gap length 0:00:02.00
Peak level 100.0 %
Extraction speed 3.5 X
Track quality 100.0 %
Test CRC 04DAF990
Copy CRC 04DAF990
Accurately ripped (confidence 1) [91E1CDC8]
Copy OK
Track 2
Filename C:\EACrips\大友良英 - 2008 - Core Anode\02 - 14th July 2006, Stubnitz, Copenhagen.wav
Peak level 100.0 %
Extraction speed 4.6 X
Track quality 99.9 %
Test CRC B6F70DB8
Copy CRC B6F70DB8
Accurately ripped (confidence 1) [4993385F]
Copy OK
Track 3
Filename C:\EACrips\大友良英 - 2008 - Core Anode\03 - 15th December 2006, ICA Theatre, London.wav
Peak level 100.0 %
Extraction speed 5.9 X
Track quality 100.0 %
Test CRC BAA31A90
Copy CRC BAA31A90
Accurately ripped (confidence 1) [96DB309E]
Copy OK
All tracks accurately ripped
No errors occurred
End of status report
==== Log checksum 65B79ED7D56A242E9DF100F06043D2071EB23BE07609D449B9067C0E20EF0674 ====
 
Содержание индексной карты (.CUE)
REM GENRE Unknown
REM DATE 2008
REM DISCID 1F106C03
REM COMMENT "ExactAudioCopy v1.0b1"
FILE ".... - 2008 - Core Anode\01 - 19th September 2002, Kid Ailack Art Hall, Tokyo.wav" WAVE
TRACK 01 AUDIO
FLAGS DCP
INDEX 01 00:00:00
FILE ".... - 2008 - Core Anode\02 - 14th July 2006, Stubnitz, Copenhagen.wav" WAVE
TRACK 02 AUDIO
FLAGS DCP
INDEX 01 00:00:00
FILE ".... - 2008 - Core Anode\03 - 15th December 2006, ICA Theatre, London.wav" WAVE
TRACK 03 AUDIO
FLAGS DCP
INDEX 01 00:00:00
 
Лог проверки качества
AUDIOCHECKER v2.0 beta (build 457) - by Dester - opdester@freemail.hu
~~~~~~~~~~~~~~~~~~~~~~~~~~~~~~~~~~
-=== DO NOT EDIT THIS FILE! ===-
Path: ...\Otomo Yoshihide - 2008 - Core Anode [FLAC]
1 -=- 01 - 19th September 2002, Kid Ailack Art Hall, Tokyo.flac -=- CDDA (99%)
2 -=- 02 - 14th July 2006, Stubnitz, Copenhagen.flac -=- CDDA (94%)
3 -=- 03 - 15th December 2006, ICA Theatre, London.flac -=- CDDA (100%)
Summary 97,67% CDDA
48653652
 
Состав
1. 19th September 2002, Kid Ailack Art Hall, Tokyo
Uemura Masahiro: drums
Ito Atsuhiro: optron
Itoken: drums
Otomo Yoshihide: guitar
Live recording: Otomo Yoshihide at Kid Ailack Art Hall, Tokyo, September 19, 2002
2. 14th July 2006, Stubnitz, Copenhagen
Nis Bysted: guitar
Yoshigaki Yasuhiro: drums
Mads Heldtberg: guitar
Saito "Shacho" Ryoichi: guitar
Andreas Hauer-Jensen: drums
Toke Tietze Mortensen: drums
Otomo Yoshihide: guitar
Live sound mix and recording: Blo @ Stubnitz, Copenhagen, July 14, 2006
3. 15th December 2006, ICA Theatre, London
Andrea Neumann: inside piano, mixing desk
Uemura Masahiro: drums
Sachiko M: sinewaves
Rhodri Davies: harp
Ichiraku Yoshimitsu: drums
Stefano Tedesco: vibraphone
Tim Barnes: timpani, tam-tam, cymbal
Sarah Washington: electronics
Ishikawa Ko: sho, electronics
Matt Davis: trumpet
Angharad Davies: violin
Tom Chant: tenor sax
Mark Sanders: drums
Otomo Yoshihide: turntable, guitar amp
Live recording: Rick Campion and Sebastian Lexer at LMC Festival, ICA Theatre, London, December 15, 2006
По всем вопросам пишите личное сообщение пользователю M0p94ok.
10:47
145
Нет комментариев. Ваш будет первым!