Вы используете незарегистрированную версию компонента "Вкладки"!

Поиск

(Free Improvisation) Tetuzi Akiyama / Toshimaru Nakamura / Otomo Yoshihide / Taku Unami (Naoaki Miyamoto, Tsuguto Tsunoda) - Compositions for Guitars Vol. 2 - 2004, FLAC (tracks+.cue) lossless

(Free Improvisation) Tetuzi Akiyama / Toshimaru Nakamura / Otomo Yoshihide / Taku Unami (Naoaki Miyamoto, Tsuguto Tsunoda) - Compositions for Guitars Vol. 2 - 2004, FLAC (tracks+.cue) lossless
Треклист:
Tetuzi Akiyama / Toshimaru Nakamura / Otomo Yoshihide / Taku Unami / Compositions for Guitars Vol. 2
Жанр: Free Improvisation
Страна-производитель диска: Франция
Год издания диска: 2004
Издатель (лейбл): A Bruit Secret
Номер по каталогу: 104
Страна: Япония
Аудио кодек: FLAC (*.flac)
Тип рипа: tracks+.cue
Битрейт аудио: lossless
Продолжительность: 59:09
Источник (релизер): вот.сиди (Lavendera)
Наличие сканов в содержимом раздачи: нет
Треклист:
1. gt flo #2 (Toshimaru Nakamura) (13:15)
Toshimaru Nakamura: feedback between an electric guitar, two guitar amps, and three pickups
Recorded by Toshimaru Nakamura in Tokyo, June 2003
2. Moebius Rings (for two guitars) (Tetuzi Akiyama) (12:53)
Tetuzi Akiyama: nylon string resonator guitars, overdubbed twice
Recorded by Taku Unami at Hibari Studio, Tokyo, April 11, 2004
3. Plastics Pick and Mini-Motor (Otomo Yoshihide) (6:26)
Otomo Yoshihide: electric guitar
Recorded at Kid Ailack Art Hall, Tokyo, March 17, 2004
4. The Whisperer in Darkness (Taku Unami) (16:51)
Tetuzi Akiyama: acoustic guitar
Taku Unami: pedal steel guitar
Recorded at Hibari Studio, Tokyo, April 11, 2004
5. Softly, as in Five Guitars Feedbacks (Otomo Yoshihide) (9:43)
Otomo Yoshihide, Toshimaru Nakamura, Naoaki Miyamoto, Tsuguto Tsunoda, Tetuzi Akiyama: electric guitars (left to right)
Recorded at Kid Ailack Art Hall, Tokyo, March 17, 2004
 
Лог создания рипа
Exact Audio Copy V1.0 beta 1 from 15. November 2010
EAC extraction logfile from 10. April 2011, 0:26
Tetuzi Akiyama, Toshimaru Nakamura, Otomo Yoshihide & Taku Unami / Compositions for Guitars, Vol. 2
Used drive : _NEC DVD_RW ND-3540A Adapter: 2 ID: 0
Read mode : Secure
Utilize accurate stream : Yes
Defeat audio cache : Yes
Make use of C2 pointers : No
Read offset correction : 48
Overread into Lead-In and Lead-Out : No
Fill up missing offset samples with silence : Yes
Delete leading and trailing silent blocks : No
Null samples used in CRC calculations : Yes
Used interface : Installed external ASPI interface
Gap handling : Appended to previous track
Used output format : User Defined Encoder
Selected bitrate : 320 kBit/s
Quality : High
Add ID3 tag : No
Command line compressor : C:\Program Files\Exact Audio Copy\Flac\flac.exe
Additional command line options : -V -8 -T "artist=%a" -T "title=%t" -T "album=%g" -T "date=%y" -T "tracknumber=%n" -T "genre=%m" %s
TOC of the extracted CD
Track | Start | Length | Start sector | End sector
---------------------------------------------------------
1 | 4:18.54 | 13:17.35 | 19404 | 79213
2 | 17:36.14 | 12:51.67 | 79214 | 137105
3 | 30:28.06 | 6:22.00 | 137106 | 165755
4 | 36:50.06 | 16:56.44 | 165756 | 241999
5 | 53:46.50 | 9:41.24 | 242000 | 285598
Track 1
Filename C:\Tetuzi Akiyama, Toshimaru Nakamura, Otomo Yoshihide & Taku Unami - 2004 - Compositions for Guitars, Vol. 2\01 - Track01.wav
Pre-gap length 0:04:20.72
Peak level 93.0 %
Extraction speed 5.8 X
Track quality 100.0 %
Test CRC 41FD5E6D
Copy CRC 41FD5E6D
Track not present in AccurateRip database
Copy OK
Track 2
Filename C:\Tetuzi Akiyama, Toshimaru Nakamura, Otomo Yoshihide & Taku Unami - 2004 - Compositions for Guitars, Vol. 2\02 - Track02.wav
Pre-gap length 0:00:04.98
Peak level 93.3 %
Extraction speed 7.0 X
Track quality 100.0 %
Test CRC E5D970EC
Copy CRC E5D970EC
Track not present in AccurateRip database
Copy OK
Track 3
Filename C:\Tetuzi Akiyama, Toshimaru Nakamura, Otomo Yoshihide & Taku Unami - 2004 - Compositions for Guitars, Vol. 2\03 - Track03.wav
Pre-gap length 0:00:06.56
Peak level 86.5 %
Extraction speed 7.3 X
Track quality 100.0 %
Test CRC 939E698D
Copy CRC 939E698D
Track not present in AccurateRip database
Copy OK
Track 4
Filename C:\Tetuzi Akiyama, Toshimaru Nakamura, Otomo Yoshihide & Taku Unami - 2004 - Compositions for Guitars, Vol. 2\04 - Track04.wav
Pre-gap length 0:00:07.65
Peak level 33.7 %
Extraction speed 8.5 X
Track quality 100.0 %
Test CRC 5D35E339
Copy CRC 5D35E339
Track not present in AccurateRip database
Copy OK
Track 5
Filename C:\Tetuzi Akiyama, Toshimaru Nakamura, Otomo Yoshihide & Taku Unami - 2004 - Compositions for Guitars, Vol. 2\05 - Track05.wav
Pre-gap length 0:00:05.38
Peak level 75.3 %
Extraction speed 8.7 X
Track quality 100.0 %
Test CRC 8CD7DD10
Copy CRC 8CD7DD10
Track not present in AccurateRip database
Copy OK
None of the tracks are present in the AccurateRip database
No errors occurred
End of status report
==== Log checksum 0E596D27EFBDA84666C49DD820BE8E8F37F4E370608B1E35EF755DAC7EE70E02 ====
 
Содержание индексной карты (.CUE)
REM DATE 2004
REM DISCID 380DDD05
REM COMMENT "ExactAudioCopy v1.0b1"
FILE "Tetuzi Akiyama, Toshimaru Nakamura, Otomo Yoshihide & Taku Unami - 2004 - Compositions for Guitars, Vol. 2\01 - Track01.wav" WAVE
TRACK 01 AUDIO
FLAGS DCP
PREGAP 04:18:54
INDEX 01 00:00:00
TRACK 02 AUDIO
FLAGS DCP
INDEX 00 13:12:36
FILE "Tetuzi Akiyama, Toshimaru Nakamura, Otomo Yoshihide & Taku Unami - 2004 - Compositions for Guitars, Vol. 2\02 - Track02.wav" WAVE
INDEX 01 00:00:00
TRACK 03 AUDIO
FLAGS DCP
INDEX 00 12:45:25
FILE "Tetuzi Akiyama, Toshimaru Nakamura, Otomo Yoshihide & Taku Unami - 2004 - Compositions for Guitars, Vol. 2\03 - Track03.wav" WAVE
INDEX 01 00:00:00
TRACK 04 AUDIO
FLAGS DCP
INDEX 00 06:14:26
FILE "Tetuzi Akiyama, Toshimaru Nakamura, Otomo Yoshihide & Taku Unami - 2004 - Compositions for Guitars, Vol. 2\04 - Track04.wav" WAVE
INDEX 01 00:00:00
TRACK 05 AUDIO
FLAGS DCP
INDEX 00 16:51:15
FILE "Tetuzi Akiyama, Toshimaru Nakamura, Otomo Yoshihide & Taku Unami - 2004 - Compositions for Guitars, Vol. 2\05 - Track05.wav" WAVE
INDEX 01 00:00:00
 
Лог проверки качества
AUDIOCHECKER v2.0 beta (build 457) - by Dester - opdester@freemail.hu
~~~~~~~~~~~~~~~~~~~~~~~~~~~~~~~~~~
-=== DO NOT EDIT THIS FILE! ===-
Path: ...\Tetuzi Akiyama, Toshimaru Nakamura, Otomo Yoshihide & Taku Unami - 2004 - Compositions for Guitars, Vol. 2
1 -=- 01 - Toshimaru Nakamura gt flo #2.flac -=- CDDA (100%)
2 -=- 02 - Tetuzi Akiyama Moebius Rings (For Two Guitars).flac -=- CDDA (100%)
3 -=- 03 - Otomo Yoshihide Plastics Pick & Mini-Motor.flac -=- CDDA (100%)
4 -=- 04 - Taku Unami The Whisperer in Darkness.flac -=- CDDA (100%)
5 -=- 05 - Otomo Yoshihide Softly, as in Five Guitars Feedbacks.flac -=- CDDA (100%)
Summary 100,00% CDDA
24852836
Any questions -> support@pro-jazz.com. По всем вопросам пишите -> support@pro-jazz.com
10:48
158
Нет комментариев. Ваш будет первым!