Вы используете незарегистрированную версию компонента "Вкладки"!

Поиск

(Free Improvisation) Jon Corbett, Nick Stephens, Tony Marsh - The Play's The Thing - 2006, FLAC (tracks+.cue) lossless

(Free Improvisation) Jon Corbett, Nick Stephens, Tony Marsh - The Play's The Thing - 2006, FLAC (tracks+.cue) lossless
Треклист:
Jon Corbett, Nick Stephens, Tony Marsh / The Play's The Thing
Жанр: Free Improvisation
Страна-производитель диска: Великобритания
Год издания диска: 2006
Издатель (лейбл): Loose Torque
Номер по каталогу: LT 014
Страна: Великобритания
Аудио кодек: FLAC (*.flac)
Тип рипа: tracks+.cue
Битрейт аудио: lossless
Продолжительность: 1:01:14
Источник (релизер): другой трекер (iwals)
Наличие сканов в содержимом раздачи: да
Треклист:
1. Trippingly On The Tongue 8:00
2. The Time Is Out Of Joint 6:58
3. Antic Disposition 8:22
4. Courting Danger 8:14
5. In B Or Not In B 9:03
6. A Conspiracy of Cartographers 20:04
Recorded in Northwood, September 2006
 
Лог создания рипа
Exact Audio Copy V0.99 prebeta 4 from 23. January 2008
EAC extraction logfile from 15. February 2009, 10:18
Jon Corbett, Nick Stephens, Tony Marsh / The Play's The Thing
Used drive : HL-DT-STBDDVDRW GGC-H20L Adapter: 1 ID: 0
Read mode : Secure
Utilize accurate stream : Yes
Defeat audio cache : Yes
Make use of C2 pointers : No
Read offset correction : 667
Overread into Lead-In and Lead-Out : No
Fill up missing offset samples with silence : Yes
Delete leading and trailing silent blocks : No
Null samples used in CRC calculations : Yes
Used interface : Native Win32 interface for Win NT & 2000
Gap handling : Appended to previous track
Used output format : User Defined Encoder
Selected bitrate : 128 kBit/s
Quality : High
Add ID3 tag : No
Command line compressor : C:\Program Files (x86)\FLAC\flac.exe
Additional command line options : -V -8 -T "artist=%a" -T "title=%t" -T "album=%g" -T "date=%y" -T "tracknumber=%n" -T "genre=%m" %s
TOC of the extracted CD
Track | Start | Length | Start sector | End sector
---------------------------------------------------------
1 | 0:00.00 | 8:06.29 | 0 | 36478
2 | 8:06.29 | 7:04.57 | 36479 | 68335
3 | 15:11.11 | 8:28.29 | 68336 | 106464
4 | 23:39.40 | 8:20.57 | 106465 | 144021
5 | 32:00.22 | 9:09.47 | 144022 | 185243
6 | 41:09.69 | 20:04.01 | 185244 | 275544
Track 1
Filename E:\New Rip\Jon Corbett, Nick Stephens, Tony Marsh - The Play's The Thing\01 - Trippingly On The Tongue.wav
Pre-gap length 0:00:02.00
Peak level 96.6 %
Track quality 100.0 %
Test CRC 7A437620
Copy CRC 7A437620
Copy OK
Track 2
Filename E:\New Rip\Jon Corbett, Nick Stephens, Tony Marsh - The Play's The Thing\02 - The Time Is Out Of Joint.wav
Pre-gap length 0:00:06.00
Peak level 96.6 %
Track quality 100.0 %
Test CRC 27BB7012
Copy CRC 27BB7012
Copy OK
Track 3
Filename E:\New Rip\Jon Corbett, Nick Stephens, Tony Marsh - The Play's The Thing\03 - Antic Disposition.wav
Pre-gap length 0:00:06.00
Peak level 96.6 %
Track quality 99.9 %
Test CRC 36990B6A
Copy CRC 36990B6A
Copy OK
Track 4
Filename E:\New Rip\Jon Corbett, Nick Stephens, Tony Marsh - The Play's The Thing\04 - Courting Danger.wav
Pre-gap length 0:00:06.00
Peak level 96.5 %
Track quality 99.9 %
Test CRC 49D7AD8D
Copy CRC 49D7AD8D
Copy OK
Track 5
Filename E:\New Rip\Jon Corbett, Nick Stephens, Tony Marsh - The Play's The Thing\05 - In B Or Not In B.wav
Pre-gap length 0:00:06.00
Peak level 96.6 %
Track quality 100.0 %
Test CRC 0279F85B
Copy CRC 0279F85B
Copy OK
Track 6
Filename E:\New Rip\Jon Corbett, Nick Stephens, Tony Marsh - The Play's The Thing\06 - A Conspiracy of Cartographers.wav
Pre-gap length 0:00:06.00
Peak level 89.7 %
Track quality 100.0 %
Test CRC 1065E0E1
Copy CRC 1065E0E1
Copy OK
No errors occurred
End of status report
 
Содержание индексной карты (.CUE)
REM GENRE Jazz
REM DATE 2006
REM DISCID 470E5906
REM COMMENT "ExactAudioCopy v0.99pb4"
PERFORMER "Jon Corbett, Nick Stephens, Tony Marsh"
TITLE "The Play's The Thing"
FILE "01 - Trippingly On The Tongue.wav" WAVE
TRACK 01 AUDIO
TITLE "Trippingly On The Tongue"
PERFORMER "Jon Corbett, Nick Stephens, Tony Marsh"
INDEX 01 00:00:00
TRACK 02 AUDIO
TITLE "The Time Is Out Of Joint"
PERFORMER "Jon Corbett, Nick Stephens, Tony Marsh"
INDEX 00 08:00:29
FILE "02 - The Time Is Out Of Joint.wav" WAVE
INDEX 01 00:00:00
TRACK 03 AUDIO
TITLE "Antic Disposition"
PERFORMER "Jon Corbett, Nick Stephens, Tony Marsh"
INDEX 00 06:58:57
FILE "03 - Antic Disposition.wav" WAVE
INDEX 01 00:00:00
TRACK 04 AUDIO
TITLE "Courting Danger"
PERFORMER "Jon Corbett, Nick Stephens, Tony Marsh"
INDEX 00 08:22:29
FILE "04 - Courting Danger.wav" WAVE
INDEX 01 00:00:00
TRACK 05 AUDIO
TITLE "In B Or Not In B"
PERFORMER "Jon Corbett, Nick Stephens, Tony Marsh"
INDEX 00 08:14:57
FILE "05 - In B Or Not In B.wav" WAVE
INDEX 01 00:00:00
TRACK 06 AUDIO
TITLE "A Conspiracy of Cartographers"
PERFORMER "Jon Corbett, Nick Stephens, Tony Marsh"
INDEX 00 09:03:47
FILE "06 - A Conspiracy of Cartographers.wav" WAVE
INDEX 01 00:00:00
 
Лог проверки качества
AUDIOCHECKER v2.0 beta (build 457) - by Dester - opdester@freemail.hu
~~~~~~~~~~~~~~~~~~~~~~~~~~~~~~~~~~
-=== DO NOT EDIT THIS FILE! ===-
Path: ...\Jon Corbett, Nick Stephens, Tony Marsh - The Play's The Thing (2006) [FLAC]
1 -=- 01 - Trippingly On The Tongue.flac -=- CDDA (100%)
2 -=- 02 - The Time Is Out Of Joint.flac -=- CDDA (100%)
3 -=- 03 - Antic Disposition.flac -=- CDDA (100%)
4 -=- 04 - Courting Danger.flac -=- CDDA (100%)
5 -=- 05 - In B Or Not In B.flac -=- CDDA (100%)
6 -=- 06 - A Conspiracy of Cartographers.flac -=- CDDA (100%)
Summary 100,00% CDDA
222006004
 
Состав
Jon Corbett - Trumpet
Nick Stephens - Bass
Tony Marsh - Drums
Any questions -> support@pro-jazz.com. По всем вопросам пишите -> support@pro-jazz.com
10:49
141
Нет комментариев. Ваш будет первым!