Вы используете незарегистрированную версию компонента "Вкладки"!

Поиск

(Structured Improvisation) Otomo Yoshihide - Ensemble Cathode - 2002, FLAC (tracks+.cue) lossless

Треклист:
Otomo Yoshihide / Ensemble Cathode
Жанр: Structured Improvisation
Страна-производитель диска: Япония
Год издания диска: 2002
Издатель (лейбл): Improvised Music from Japan
Номер по каталогу: IMJ-502
Страна: Япония
Аудио кодек: FLAC (*.flac)
Тип рипа: tracks+.cue
Битрейт аудио: lossless
Продолжительность: 57:53
Источник (релизер): вот.сиди (CptInsect)
Наличие сканов в содержимом раздачи: нет
Треклист:
1. Cathode #4 (20:57)
2. Cathode #5 (14:19)
3. Cathode #3 (Variation of Modulation #1) (22:15)
Recorded and mixed by Yoshiaki Kondo at GOK Sound, Tokyo, May-July 2001
Additional recording by Otomo Yoshihide at A-102 Studio and M-101 Studio, Tokyo, August 2001 and March 2002
 
Лог создания рипа
Exact Audio Copy V1.0 beta 1 from 15. November 2010
EAC extraction logfile from 9. April 2011, 15:02
大友良英 / Ensemble Cathode
Used drive : TSSTcorpCDDVDW SH-S223B Adapter: 3 ID: 0
Read mode : Secure
Utilize accurate stream : Yes
Defeat audio cache : Yes
Make use of C2 pointers : No
Read offset correction : 6
Overread into Lead-In and Lead-Out : No
Fill up missing offset samples with silence : Yes
Delete leading and trailing silent blocks : No
Null samples used in CRC calculations : Yes
Used interface : Installed external ASPI interface
Gap handling : Appended to previous track
Used output format : User Defined Encoder
Selected bitrate : 896 kBit/s
Quality : High
Add ID3 tag : No
Command line compressor : C:\Program Files\Exact Audio Copy\Flac\flac.exe
Additional command line options : -V -8 -T "artist=%a" -T "title=%t" -T "album=%g" -T "date=%y" -T "tracknumber=%n" -T "genre=%m" %s
TOC of the extracted CD
Track | Start | Length | Start sector | End sector
---------------------------------------------------------
1 | 0:00.00 | 21:06.09 | 0 | 94958
2 | 21:06.09 | 14:31.08 | 94959 | 160291
3 | 35:37.17 | 22:15.51 | 160292 | 260467
Track 1
Filename C:\EACrips\大友良英 - 2002 - Ensemble Cathode\01 - Cathode #4.wav
Pre-gap length 0:00:02.00
Peak level 96.8 %
Extraction speed 2.4 X
Track quality 100.0 %
Test CRC 705F70BE
Copy CRC 705F70BE
Accurately ripped (confidence 1) [1EE5E5EB]
Copy OK
Track 2
Filename C:\EACrips\大友良英 - 2002 - Ensemble Cathode\02 - Cathode #5.wav
Pre-gap length 0:00:08.78
Peak level 96.0 %
Extraction speed 3.0 X
Track quality 100.0 %
Test CRC 0C19E940
Copy CRC 0C19E940
Accurately ripped (confidence 1) [F7F85458]
Copy OK
Track 3
Filename C:\EACrips\大友良英 - 2002 - Ensemble Cathode\03 - Cathode #3.wav
Pre-gap length 0:00:11.78
Peak level 98.9 %
Extraction speed 3.7 X
Track quality 100.0 %
Test CRC FA9C9C94
Copy CRC FA9C9C94
Accurately ripped (confidence 1) [FB1BB0E8]
Copy OK
All tracks accurately ripped
No errors occurred
End of status report
==== Log checksum 163777ABFED9B538BD84B1891BEFFB75F8A61829FA681940A93E143C03D108A1 ====
 
Содержание индексной карты (.CUE)
REM GENRE Unknown
REM DATE 2002
REM DISCID 220D9003
REM COMMENT "ExactAudioCopy v1.0b1"
FILE ".... - 2002 - Ensemble Cathode\01 - Cathode #4.wav" WAVE
TRACK 01 AUDIO
INDEX 01 00:00:00
TRACK 02 AUDIO
INDEX 00 20:57:25
FILE ".... - 2002 - Ensemble Cathode\02 - Cathode #5.wav" WAVE
INDEX 01 00:00:00
TRACK 03 AUDIO
INDEX 00 14:19:24
FILE ".... - 2002 - Ensemble Cathode\03 - Cathode #3.wav" WAVE
INDEX 01 00:00:00
 
Лог проверки качества
AUDIOCHECKER v2.0 beta (build 457) - by Dester - opdester@freemail.hu
~~~~~~~~~~~~~~~~~~~~~~~~~~~~~~~~~~
-=== DO NOT EDIT THIS FILE! ===-
Path: ...\Otomo Yoshihide - 2002 - Ensemble Cathode [FLAC]
1 -=- 01 - Cathode #4.flac -=- CDDA (42%)
2 -=- 02 - Cathode #5.flac -=- ERROR
3 -=- 03 - Cathode #3.flac -=- ERROR
147547492
там, где есть Sachiko M, аудиочеккеру делать нечего
 
Скриншот спектра частот
 
Об альбоме (сборнике)
大友良英 CD『Ensemble Cathode』ライナーノート
本作の録音は2001年の5月から2002年の3月にかけて、断続的におこなわれた。大部分はTZADIKから発売された『Cathode』や『Anode』でも使った東京吉祥寺にあるGOK SOUNDの一番大きな部屋でライブに近い状態で録音されたが、それ以外に「カソード #3」、「カソード #4」では自宅の小さなスタジオで吉田アミの声を、「カソード #5」ではアンドレア・ノイマン、Sachiko M、そしてわたしの音を録り足した。実際に作曲されたのはさらにその前の2000年ころからになるが、そもそもは1999年にスタジオでの録音用につくられた「カソード #2」と「モジュレーション #1」をステージ用に書き替える過程で、アイディアがひろがり、ここに収められた3つの作品ができあがったのだ。
最も初期につくられた「カソード #3」は「モジュレーション #1」を土台にいくつかの欧米でのコンサート、特に2001年1月のジャパノラマのUKツアーの中で練り上げられた作品で、今回の録音以前にもジャパノラマのロンドン・クイーンエリザベス・ホールでのライブ・レコーディングが残っていて演奏、録音状態ともに良く、機会があればいつか発売したい。ロンドン録音では杉本拓のみが彼の作品の「KOMA」をモチーフにした即興演奏を同時に演奏していて、「カソード #3」の中に溶け込む構成になっている。今回の録音では杉本拓のパートはほぼ即興になってはいるが、実際には「KOMA」の面影が随所に残っている。
「カソード #4」、「カソード #5」は2001年にTZADIKからリリースされたCD『ANODE』に致るまでの習作の中から出来た作品で、コンセプト的にはちょうどカソードとアノードの中間的な作品になっている。演奏家は基本的には即興演奏をするのだけれど、その際に許された自由はかなり少なくもあり、考えようによっては多くもある。いずれも一人のミュージシャンや作曲家の意志で全体の方向が決まらないような仕掛けがしてあって、その意味でANODE的な作風になっている。
いずれの作品も、「カソード #3」の中に杉本拓の作曲が溶け込んでいる例を出すまでもなく、これまでのわたしの作品同様に、参加ミュージシャンの即興演奏家、あるいは作曲家としての能力抜きには成立し得ない作品で、その意味では従来の西洋音楽が言っているせまい意味での作曲作品とは異なるし、かといって即興音楽だけでもくくれないように思う。ただわたしにとってはこういう音楽の作り方がもっとも自然で、それはほかの仕事、たとえばJAZZを演奏するときや、ターンテーブルやギターのソロをやるときも、まったく変わらない。そんな訳で、もしこの音楽が成功しているとするなら、それは素晴らしい即興演奏家達と、素敵な音色を出す楽器達、そしてそれを録音し、さらにはそれを聴いて素晴らしいと思ってくれる人達のおかげだ。感謝したい。2002年5月ロンドンにて
大友良英английский перевод
 
Состав
Cathode #4 (20:57)
Taku Sugimoto: electric guitar
Tetuzi Akiyama: turntable without records, contact microphones
Yasuhiro Yoshigaki: waterphone
Kumiko Takara: snare drum
Masahiro Uemura: bells
Ami Yoshida: voice
Itoken: crotales
Mari Furuta: snare drum
Yoshimitsu Ichiraku: cymbal with bow
Sachiko M: sine waves, contact microphone
Yoko Nishi: prepared 17-string koto
Cathode #5 (14:19)
Yoko Nishi: prepared 17-string koto
Taku Sugimoto: electric guitar
Andrea Neumann: inside piano
Sachiko M: sine waves, contact microphone
Otomo Yoshihide: turntable
Cathode #3 (Variation of Modulation #1) (22:15)
Taku Sugimoto: electric guitar
Yasuhiro Yoshigaki: percussion
Kumiko Takara: vibraphone, percussion
Ko Ishikawa: sho
Ami Yoshida: voice
Mari Furuta: crotales, percussion
Yoshimitsu Ichiraku: percussion with bow
Sachiko M: sine waves, contact microphone
Yoko Nishi: prepared 17-string koto
Any questions -> support@pro-jazz.com. По всем вопросам пишите -> support@pro-jazz.com
10:47
144
Нет комментариев. Ваш будет первым!