Вы используете незарегистрированную версию компонента "Вкладки"!

Поиск

(Free Jazz/Trombone) Hampton/Mangelsdorff/Persson/Whigham - Trombone Workshop (1971) - 2008, FLAC (image+.cue), lossless

Треклист:
Hampton/Mangelsdorff/Persson/Whigham - Trombone Workshop (1971)
Жанр: Free Jazz/Trombone
Год выпуска диска: 2008
Производитель диска: Germany (Universal)
Аудио кодек: FLAC
Тип рипа: image+.cue
Битрейт аудио: lossless
Продолжительность: 41:05
Трэклист:
01 Trombone Suit
02 Mother Someplace
03 Uli's Dance
04 Ice - Nine
05 A Certain Beauty
Slide Hampton, Albert Mangelsdorff, Ake Persson, Jiggs Whigham trombone
George Gruntz piano
Isla Eckinger bass
Tony Inzalaco drums
Recorded live Sep 1971, Zurich
Originally released as MPS 15 325
Доп. информация: в сканах
Источник: рип мой
 
отчёт ЕАС
Exact Audio Copy V0.99 prebeta 5 from 4. May 2009
EAC extraction logfile from 11. June 2010, 13:38
Slide Hampton / Trombone Workshop
Used drive : Optiarc DVD RW AD-5200S Adapter: 1 ID: 0
Read mode : Secure
Utilize accurate stream : Yes
Defeat audio cache : Yes
Make use of C2 pointers : No
Read offset correction : 48
Overread into Lead-In and Lead-Out : No
Fill up missing offset samples with silence : Yes
Delete leading and trailing silent blocks : No
Null samples used in CRC calculations : Yes
Used interface : Installed external ASPI interface
Used output format : User Defined Encoder
Selected bitrate : 192 kBit/s
Quality : High
Add ID3 tag : No
Command line compressor : C:\Program Files\Burrrn\flac.exe
Additional command line options : -T "DATE=%y" -T "GENRE=%m" -8 -V %s
TOC of the extracted CD
Track | Start | Length | Start sector | End sector
---------------------------------------------------------
1 | 0:00.00 | 9:38.32 | 0 | 43381
2 | 9:38.32 | 7:26.11 | 43382 | 76842
3 | 17:04.43 | 4:44.24 | 76843 | 98166
4 | 21:48.67 | 9:53.14 | 98167 | 142655
5 | 31:42.06 | 9:23.16 | 142656 | 184896
Range status and errors
Selected range
Filename F:\EAC\Новая папка\Slide Hampton - Trombone Workshop.wav
Peak level 99.8 %
Range quality 100.0 %
Test CRC F52DB3B4
Copy CRC F52DB3B4
Copy OK
No errors occurred
AccurateRip summary
Track 1 accurately ripped (confidence 1) [C1C0ACB2]
Track 2 accurately ripped (confidence 1) [B7D3D065]
Track 3 accurately ripped (confidence 1) [B79052BE]
Track 4 accurately ripped (confidence 1) [AD66A609]
Track 5 accurately ripped (confidence 1) [ED3E44EB]
All tracks accurately ripped
End of status report
По всем вопросам пишите личное сообщение пользователю M0p94ok.
23:47
172
Нет комментариев. Ваш будет первым!