Поиск

(Free Jazz/Trombone) Albert Mangelsdorff - Solo Now (with Hampel, Kuhn, Favre) (1976) - 2008, FLAC (image+.cue), lossless

Треклист:
Albert Mangelsdorff - Solo Now (with Hampel, Kuhn, Favre) (1976)
Жанр: Free Jazz/Trombone
Год выпуска диска: 2008
Производитель диска: Germany (Universal)
Аудио кодек: FLAC
Тип рипа: image+.cue
Битрейт аудио: lossless
Продолжительность: 48:59
Трэклист:
01 Rainbow Road
02 Ant Steps On An Elephant's Toe
03 Take Your Hit Kit
04 Schwwweeet: My New Friend - Freedom of the universe - Kisses - Hot
05 Fuga mit Orgelpunkt von Schnee
06 The Barriers On The Way To You
07 In A Sentimental Mood
08 Supraconductivity
09 Medieval Percussion Song
10 Ringelvier
Albert Mangelsdorff trombone
Gunter Hampel vibes, flute & bass clarinet
Joachim Kuhn piano
Pierre Favre perc
Rec Feb 9&10, 1976 MPS-studio Villingen
Originally released as MPS 15 457
Доп. информация: в сканах
Источник: рип мой
 
отчёт ЕАС
Exact Audio Copy V0.99 prebeta 5 from 4. May 2009
EAC extraction logfile from 11. June 2010, 15:52
Albert Mangelsdorff / Solo Now
Used drive : Optiarc DVD RW AD-5200S Adapter: 1 ID: 0
Read mode : Secure
Utilize accurate stream : Yes
Defeat audio cache : Yes
Make use of C2 pointers : No
Read offset correction : 48
Overread into Lead-In and Lead-Out : No
Fill up missing offset samples with silence : Yes
Delete leading and trailing silent blocks : No
Null samples used in CRC calculations : Yes
Used interface : Installed external ASPI interface
Used output format : User Defined Encoder
Selected bitrate : 192 kBit/s
Quality : High
Add ID3 tag : No
Command line compressor : C:\Program Files\Burrrn\flac.exe
Additional command line options : -T "DATE=%y" -T "GENRE=%m" -8 -V %s
TOC of the extracted CD
Track | Start | Length | Start sector | End sector
---------------------------------------------------------
1 | 0:00.00 | 4:16.00 | 0 | 19199
2 | 4:16.00 | 6:10.65 | 19200 | 47014
3 | 10:26.65 | 4:41.23 | 47015 | 68112
4 | 15:08.13 | 10:27.21 | 68113 | 115158
5 | 25:35.34 | 5:04.09 | 115159 | 137967
6 | 30:39.43 | 2:46.66 | 137968 | 150483
7 | 33:26.34 | 4:56.66 | 150484 | 172749
8 | 38:23.25 | 2:27.60 | 172750 | 183834
9 | 40:51.10 | 4:11.17 | 183835 | 202676
10 | 45:02.27 | 3:56.37 | 202677 | 220413
Range status and errors
Selected range
Filename F:\EAC\Новая папка (2)\Albert Mangelsdorff - Solo Now.wav
Peak level 99.6 %
Range quality 100.0 %
Test CRC 333E1515
Copy CRC 333E1515
Copy OK
No errors occurred
AccurateRip summary
Track 1 accurately ripped (confidence 4) [1CE2F525]
Track 2 accurately ripped (confidence 4) [59AA9679]
Track 3 accurately ripped (confidence 4) [304A16F0]
Track 4 accurately ripped (confidence 4) [19E8012D]
Track 5 accurately ripped (confidence 4) [EE9C073B]
Track 6 accurately ripped (confidence 4) [B345696B]
Track 7 accurately ripped (confidence 4) [54649A10]
Track 8 accurately ripped (confidence 4) [C7646D2B]
Track 9 accurately ripped (confidence 4) [D4AB5719]
Track 10 accurately ripped (confidence 4) [8D849E87]
All tracks accurately ripped
End of status report
По всем вопросам пишите личное сообщение пользователю M0p94ok.
23:46
238
Нет комментариев. Ваш будет первым!