Вы используете незарегистрированную версию компонента "Вкладки"!

Поиск

(Free Improvisation, Emanem) Chris Burn Ensemble (John Butcher, Mark Wastell, Rhodri Davies, John Russell, Matt Hutchinson) - Horizontals White - 2002, FLAC (tracks+.cue), lossless

(Free Improvisation, Emanem) Chris Burn Ensemble (John Butcher, Mark Wastell, Rhodri Davies, John Russell, Matt Hutchinson) - Horizontals White - 2002, FLAC (tracks+.cue), lossless
Треклист:
Chris Burn Ensemble - Horizontals White
Жанр: Free Improvisation
Год выпуска диска: 2002
Производитель диска: Emanem (4080)
Источник: soulseek
Аудио кодек: FLAC
Тип рипа: tracks+.cue
Битрейт аудио: lossless
Продолжительность: 58:06
Трэклист:
1 - HORIZONTALS WHITE - 21:43
2 - VERTICALS BLUE - 10:19
3 - THERE WERE FIVE IN EIGHT - 9:06
4 - NIGHT-TIME NOSTALGIA - 6:12
5 - STILL LIFE ON MAY DAY - 10:25
Digital concert recordings made in London:
1 - 2: at the Red Rose by Tim Fletcher - 2001 January 21
3 - 5: at the Conway Hall by Paul Brogden - 2001 May 6
JOHN BUTCHER soprano & tenor saxophones
MARK WASTELL cello
RHODRI DAVIES harp (on 1 & 2 only)
JOHN RUSSELL guitar
CHRIS BURN piano & percussion
MATT HUTCHINSON synthesizer & electronics
Доп. информация: Как написано в сопроводительном текстовом файле, из-за ошибки синхронизации не удалось извлечь 1 трек с помощью eac, и для него была использована другая программа, остальные извлечены с помощью eac. Дефектов я не услышал.
 
Отчёт EAC
Exact Audio Copy V0.99 prebeta 5 from 4. May 2009
EAC extraction logfile from 18. May 2010, 2:58
Chris Burn Ensemble / Horizontals White
Used drive : TSSTcorpDVD+-RW TS-T633A Adapter: 1 ID: 0
Read mode : Secure
Utilize accurate stream : Yes
Defeat audio cache : Yes
Make use of C2 pointers : No
Read offset correction : 6
Overread into Lead-In and Lead-Out : No
Fill up missing offset samples with silence : Yes
Delete leading and trailing silent blocks : No
Null samples used in CRC calculations : Yes
Used interface : Installed external ASPI interface
Gap handling : Appended to previous track
Used output format : User Defined Encoder
Selected bitrate : 768 kBit/s
Quality : High
Add ID3 tag : Yes
Command line compressor : C:\Program Files (x86)\Exact Audio Copy\FLAC\FLAC.EXE
Additional command line options : -6 -V -T "ARTIST=%a" -T "TITLE=%t" -T "ALBUM=%g" -T "DATE=%y" -T "TRACKNUMBER=%n" -T "GENRE=%m" -T "COMMENT=%e" %s -o %d
TOC of the extracted CD
Track | Start | Length | Start sector | End sector
---------------------------------------------------------
1 | 0:00.00 | 21:47.00 | 0 | 98024
2 | 21:47.00 | 10:27.00 | 98025 | 145049
3 | 32:14.00 | 9:10.52 | 145050 | 186351
4 | 41:24.52 | 6:16.23 | 186352 | 214574
5 | 47:41.00 | 10:25.00 | 214575 | 261449
Track 1
Filename C:\Users\Public\Slsk\+++ SLSK ARCHIVE\+ new adds\+++ NEW RIPS\Chris Burn Ensemble - 2002 - Horizontals White\01 - Horizontals White.wav
Pre-gap length 0:00:02.00
Copy aborted
Track 2
Filename C:\Users\Public\Slsk\+++ SLSK ARCHIVE\+ new adds\+++ NEW RIPS\Chris Burn Ensemble - 2002 - Horizontals White\02 - Verticals Blue.wav
Pre-gap length 0:00:04.00
Peak level 100.0 %
Track quality 100.0 %
Copy CRC CF8BFC7C
Track not present in AccurateRip database
Copy OK
Track 3
Filename C:\Users\Public\Slsk\+++ SLSK ARCHIVE\+ new adds\+++ NEW RIPS\Chris Burn Ensemble - 2002 - Horizontals White\03 - There Were Five in Eight.wav
Pre-gap length 0:00:08.00
Peak level 100.0 %
Track quality 100.0 %
Copy CRC 0050E04C
Track not present in AccurateRip database
Copy OK
Track 4
Filename C:\Users\Public\Slsk\+++ SLSK ARCHIVE\+ new adds\+++ NEW RIPS\Chris Burn Ensemble - 2002 - Horizontals White\04 - Night-time Nostalgia.wav
Pre-gap length 0:00:04.00
Peak level 99.2 %
Track quality 100.0 %
Copy CRC C601687B
Track not present in AccurateRip database
Copy OK
Track 5
Filename C:\Users\Public\Slsk\+++ SLSK ARCHIVE\+ new adds\+++ NEW RIPS\Chris Burn Ensemble - 2002 - Horizontals White\05 - Still Life on May Day.wav
Pre-gap length 0:00:04.00
Peak level 100.0 %
Track quality 100.0 %
Copy CRC C4B6EC52
Track not present in AccurateRip database
Copy OK
4 track(s) not present in the AccurateRip database
1 track(s) canceled
No tracks could be verified as accurate
There were errors
End of status report
 
Отчёт Audiocheckera
AUDIOCHECKER v2.0 beta (build 457) - by Dester - opdester@freemail.hu
~~~~~~~~~~~~~~~~~~~~~~~~~~~~~~~~~~
-=== DO NOT EDIT THIS FILE! ===-
Path: ...\chris burn ensemble - horizontals white (emanem disc, 2002)
1 -=- 01 - Horizontals White.flac -=- CDDA (100%)
2 -=- 02 - Verticals Blue.flac -=- CDDA (100%)
3 -=- 03 - There Were Five in Eight.flac -=- CDDA (100%)
4 -=- 04 - Night-time Nostalgia.flac -=- CDDA (99%)
5 -=- 05 - Still Life on May Day.flac -=- CDDA (100%)
Summary 99,80% CDDA
164059012
 
cue
REM GENRE Avantgarde
REM DATE 2002
REM DISCID 490D9E05
REM COMMENT "ExactAudioCopy v0.99pb5"
PERFORMER "Chris Burn Ensemble"
TITLE "Horizontals White"
FILE "Chris Burn Ensemble - 2002 - Horizontals White\01 - Horizontals White.wav" WAVE
TRACK 01 AUDIO
TITLE "Horizontals White"
PERFORMER "Chris Burn Ensemble"
INDEX 01 00:00:00
TRACK 02 AUDIO
TITLE "Verticals Blue"
PERFORMER "Chris Burn Ensemble"
INDEX 00 21:43:00
FILE "Chris Burn Ensemble - 2002 - Horizontals White\02 - Verticals Blue.wav" WAVE
INDEX 01 00:00:00
TRACK 03 AUDIO
TITLE "There Were Five in Eight"
PERFORMER "Chris Burn Ensemble"
INDEX 00 10:19:00
FILE "Chris Burn Ensemble - 2002 - Horizontals White\03 - There Were Five in Eight.wav" WAVE
INDEX 01 00:00:00
TRACK 04 AUDIO
TITLE "Night-time Nostalgia"
PERFORMER "Chris Burn Ensemble"
INDEX 00 09:06:52
FILE "Chris Burn Ensemble - 2002 - Horizontals White\04 - Night-time Nostalgia.wav" WAVE
INDEX 01 00:00:00
TRACK 05 AUDIO
TITLE "Still Life on May Day"
PERFORMER "Chris Burn Ensemble"
INDEX 00 06:12:23
FILE "Chris Burn Ensemble - 2002 - Horizontals White\05 - Still Life on May Day.wav" WAVE
INDEX 01 00:00:00
По всем вопросам пишите личное сообщение пользователю M0p94ok.
23:46
209
Нет комментариев. Ваш будет первым!