Вы используете незарегистрированную версию компонента "Вкладки"!

Поиск

(Free Improvisation, Emanem) Chris Burn, John Butcher, Rhodri Davies, John Edwards - The First Two Gigs - 2001, FLAC (tracks+.cue), lossless

(Free Improvisation, Emanem) Chris Burn, John Butcher, Rhodri Davies, John Edwards - The First Two Gigs - 2001, FLAC (tracks+.cue), lossless
Треклист:
Chris Burn, John Butcher, Rhodri Davies, John Edwards - The First Two Gigs
Жанр: Free Improvisation
Год выпуска диска: 2001
Производитель диска: Emanem (4063)
Источник: soulseek
Аудио кодек: FLAC
Тип рипа: tracks+.cue
Битрейт аудио: lossless
Продолжительность: 1:08:13
Трэклист:
1 - LOW STANDARD - 13:35
2 - HIGH STANDARD - 15:44
3 - THE REMOVE - 7:36
4 - SCHARLACHGLUT - 16:11
5 - RUSSELLIANA - 8:09
6 - SOUVENIR DE DOCTEUR - 6:30
All digital concert recordings made in London:
1-3 at the Standard Music Venue by Martin Davidson - 2000 May 25
4-6 at the Red Rose by Clive Graham - 2000 September 17
CHRIS BURN piano (& percussion)
JOHN BUTCHER soprano & tenor saxophones
RHODRI DAVIES harp
JOHN EDWARDS double bass
 
Отчёт EAC
Exact Audio Copy V0.99 prebeta 5 from 4. May 2009
EAC extraction logfile from 18. May 2010, 3:50
Chris Burn, John Butcher, Rhodri Davies, John Edwards / The First Two Gigs
Used drive : TSSTcorpDVD+-RW TS-T633A Adapter: 1 ID: 0
Read mode : Secure
Utilize accurate stream : Yes
Defeat audio cache : Yes
Make use of C2 pointers : No
Read offset correction : 6
Overread into Lead-In and Lead-Out : No
Fill up missing offset samples with silence : Yes
Delete leading and trailing silent blocks : No
Null samples used in CRC calculations : Yes
Used interface : Installed external ASPI interface
Gap handling : Appended to previous track
Used output format : User Defined Encoder
Selected bitrate : 768 kBit/s
Quality : High
Add ID3 tag : Yes
Command line compressor : C:\Program Files (x86)\Exact Audio Copy\FLAC\FLAC.EXE
Additional command line options : -6 -V -T "ARTIST=%a" -T "TITLE=%t" -T "ALBUM=%g" -T "DATE=%y" -T "TRACKNUMBER=%n" -T "GENRE=%m" -T "COMMENT=%e" %s -o %d
TOC of the extracted CD
Track | Start | Length | Start sector | End sector
---------------------------------------------------------
1 | 0:00.00 | 13:39.55 | 0 | 61479
2 | 13:39.55 | 15:48.30 | 61480 | 132609
3 | 29:28.10 | 7:44.54 | 132610 | 167463
4 | 37:12.64 | 16:15.53 | 167464 | 240641
5 | 53:28.42 | 8:13.21 | 240642 | 277637
6 | 61:41.63 | 6:30.62 | 277638 | 306949
Track 1
Filename C:\Users\Public\Slsk\+++ SLSK ARCHIVE\+ new adds\+++ NEW RIPS\Chris Burn, John Butcher, Rhodri Davies, John Edwards - 2000 - The First Two Gigs\01 - Low standard.wav
Pre-gap length 0:00:02.00
Peak level 100.0 %
Track quality 100.0 %
Copy CRC 8C511C5C
Track not present in AccurateRip database
Copy OK
Track 2
Filename C:\Users\Public\Slsk\+++ SLSK ARCHIVE\+ new adds\+++ NEW RIPS\Chris Burn, John Butcher, Rhodri Davies, John Edwards - 2000 - The First Two Gigs\02 - High standard.wav
Pre-gap length 0:00:04.00
Peak level 100.0 %
Track quality 100.0 %
Copy CRC 991CCA4F
Track not present in AccurateRip database
Copy OK
Track 3
Filename C:\Users\Public\Slsk\+++ SLSK ARCHIVE\+ new adds\+++ NEW RIPS\Chris Burn, John Butcher, Rhodri Davies, John Edwards - 2000 - The First Two Gigs\03 - The remove.wav
Pre-gap length 0:00:03.98
Peak level 100.0 %
Track quality 100.0 %
Copy CRC EFC0370E
Track not present in AccurateRip database
Copy OK
Track 4
Filename C:\Users\Public\Slsk\+++ SLSK ARCHIVE\+ new adds\+++ NEW RIPS\Chris Burn, John Butcher, Rhodri Davies, John Edwards - 2000 - The First Two Gigs\04 - Scharlachglut.wav
Pre-gap length 0:00:08.00
Peak level 100.0 %
Track quality 100.0 %
Copy CRC 99C6CCE3
Track not present in AccurateRip database
Copy OK
Track 5
Filename C:\Users\Public\Slsk\+++ SLSK ARCHIVE\+ new adds\+++ NEW RIPS\Chris Burn, John Butcher, Rhodri Davies, John Edwards - 2000 - The First Two Gigs\05 - Russelliana.wav
Pre-gap length 0:00:04.00
Peak level 100.0 %
Track quality 100.0 %
Copy CRC 0D960ABD
Track not present in AccurateRip database
Copy OK
Track 6
Filename C:\Users\Public\Slsk\+++ SLSK ARCHIVE\+ new adds\+++ NEW RIPS\Chris Burn, John Butcher, Rhodri Davies, John Edwards - 2000 - The First Two Gigs\06 - Souvenir de docteur.wav
Pre-gap length 0:00:04.00
Peak level 100.0 %
Track quality 100.0 %
Copy CRC 6171227B
Track not present in AccurateRip database
Copy OK
None of the tracks are present in the AccurateRip database
No errors occurred
End of status report
 
Отчёт Audiocheckera
AUDIOCHECKER v2.0 beta (build 457) - by Dester - opdester@freemail.hu
~~~~~~~~~~~~~~~~~~~~~~~~~~~~~~~~~~
-=== DO NOT EDIT THIS FILE! ===-
Path: ...\chris burn, john butcher, rhodri davies, john edwards - the first two gigs (emanem, 2000)
1 -=- 01 - Low standard.flac -=- CDDA (100%)
2 -=- 02 - High standard.flac -=- CDDA (100%)
3 -=- 03 - The remove.flac -=- CDDA (100%)
4 -=- 04 - Scharlachglut.flac -=- CDDA (100%)
5 -=- 05 - Russelliana.flac -=- CDDA (100%)
6 -=- 06 - Souvenir de docteur.flac -=- CDDA (100%)
Summary 100,00% CDDA
237881572
 
cue
REM GENRE Avantgarde
REM DATE 2000
REM DISCID 3A0FFC06
REM COMMENT "ExactAudioCopy v0.99pb5"
PERFORMER "Chris Burn, John Butcher, Rhodri Davies, John Edwards"
TITLE "The First Two Gigs"
FILE "Chris Burn, John Butcher, Rhodri Davies, John Edwards - 2000 - The First Two Gigs\01 - Low standard.wav" WAVE
TRACK 01 AUDIO
TITLE "Low standard"
PERFORMER "Chris Burn, John Butcher, Rhodri Davies, John Edwards"
INDEX 01 00:00:00
TRACK 02 AUDIO
TITLE "High standard"
PERFORMER "Chris Burn, John Butcher, Rhodri Davies, John Edwards"
INDEX 00 13:35:55
FILE "Chris Burn, John Butcher, Rhodri Davies, John Edwards - 2000 - The First Two Gigs\02 - High standard.wav" WAVE
INDEX 01 00:00:00
TRACK 03 AUDIO
TITLE "The remove"
PERFORMER "Chris Burn, John Butcher, Rhodri Davies, John Edwards"
INDEX 00 15:44:31
FILE "Chris Burn, John Butcher, Rhodri Davies, John Edwards - 2000 - The First Two Gigs\03 - The remove.wav" WAVE
INDEX 01 00:00:00
TRACK 04 AUDIO
TITLE "Scharlachglut"
PERFORMER "Chris Burn, John Butcher, Rhodri Davies, John Edwards"
INDEX 00 07:36:54
FILE "Chris Burn, John Butcher, Rhodri Davies, John Edwards - 2000 - The First Two Gigs\04 - Scharlachglut.wav" WAVE
INDEX 01 00:00:00
TRACK 05 AUDIO
TITLE "Russelliana"
PERFORMER "Chris Burn, John Butcher, Rhodri Davies, John Edwards"
INDEX 00 16:11:53
FILE "Chris Burn, John Butcher, Rhodri Davies, John Edwards - 2000 - The First Two Gigs\05 - Russelliana.wav" WAVE
INDEX 01 00:00:00
TRACK 06 AUDIO
TITLE "Souvenir de docteur"
PERFORMER "Chris Burn, John Butcher, Rhodri Davies, John Edwards"
INDEX 00 08:09:21
FILE "Chris Burn, John Butcher, Rhodri Davies, John Edwards - 2000 - The First Two Gigs\06 - Souvenir de docteur.wav" WAVE
INDEX 01 00:00:00
Any questions -> support@pro-jazz.com. По всем вопросам пишите -> support@pro-jazz.com
23:45
166
Нет комментариев. Ваш будет первым!