Поиск

(Free Jazz/Trombone) Albert Mangelsdorff Quintett - Birds Of Underground (1972) - 2008, FLAC (image+.cue), lossless

Треклист:
Albert Mangelsdorff Quintett - Birds Of Underground
Жанр: Free Jazz/Trombone
Год выпуска диска: 2008
Производитель диска: Germany (Universal)
Аудио кодек: FLAC
Тип рипа: image+.cue
Битрейт аудио: lossless
Продолжительность: 43:25
Трэклист:
01 Wobbling Notes and Fluted Crackle
02 Grive Musicienne
03 Birds of Underground
04 Xenobiosis
Albert Mangelsdorff trombone
Heinz Sauer alto sax
Gerd Dudek tenor sax
Buschi Niebergall bass
Peter Giger drums
Rec Sep & Dec 1972, Walldorf Studio, Frankfurt
Originally Released as MPS 15 360
Доп. информация: в сканах
Источник: рип мой
 
отчёт ЕАС
Exact Audio Copy V0.99 prebeta 5 from 4. May 2009
EAC extraction logfile from 11. June 2010, 18:07
Albert Mangelsdorff / Birds Of Underground
Used drive : Optiarc DVD RW AD-5200S Adapter: 1 ID: 0
Read mode : Secure
Utilize accurate stream : Yes
Defeat audio cache : Yes
Make use of C2 pointers : No
Read offset correction : 48
Overread into Lead-In and Lead-Out : No
Fill up missing offset samples with silence : Yes
Delete leading and trailing silent blocks : No
Null samples used in CRC calculations : Yes
Used interface : Installed external ASPI interface
Used output format : User Defined Encoder
Selected bitrate : 192 kBit/s
Quality : High
Add ID3 tag : No
Command line compressor : C:\Program Files\Burrrn\flac.exe
Additional command line options : -T "DATE=%y" -T "GENRE=%m" -8 -V %s
TOC of the extracted CD
Track | Start | Length | Start sector | End sector
---------------------------------------------------------
1 | 0:00.00 | 14:19.52 | 0 | 64476
2 | 14:19.52 | 5:43.59 | 64477 | 90260
3 | 20:03.36 | 11:39.17 | 90261 | 142702
4 | 31:42.53 | 11:41.62 | 142703 | 195339
Range status and errors
Selected range
Filename F:\EAC\Новая папка (4)\Albert Mangelsdorff - Birds Of Underground.wav
Peak level 99.7 %
Range quality 100.0 %
Test CRC 4DEEA2C1
Copy CRC 4DEEA2C1
Copy OK
No errors occurred
AccurateRip summary
Track 1 not present in database
Track 2 not present in database
Track 3 not present in database
Track 4 not present in database
None of the tracks are present in the AccurateRip database
End of status report
По всем вопросам пишите личное сообщение пользователю M0p94ok.
23:48
207
Нет комментариев. Ваш будет первым!